<?xml version="1.0" standalone="no"?>
<!DOCTYPE svg PUBLIC "-//W3C//DTD SVG 1.1//EN" "http://www.w3.org/Graphics/SVG/1.1/DTD/svg11.dtd" >
<svg xmlns="http://www.w3.org/2000/svg">
<metadata>Generated by IcoMoon</metadata>
<defs>
<font id="usergems-outline-icons" horiz-adv-x="1024">
<font-face units-per-em="1024" ascent="960" descent="-64" />
<missing-glyph horiz-adv-x="1024" />
<glyph unicode="&#x20;" horiz-adv-x="512" d="" />
<glyph unicode="&#xe900;" glyph-name="google" d="M683.627 641.162c-44.22 42.279-100.463 63.806-163.106 63.806-111.113 0-205.164-75.036-238.727-175.867v-0.034c-8.533-25.6-13.382-52.945-13.382-81.067s4.849-55.467 13.382-81.067c33.555-100.847 127.605-175.902 238.727-175.902 57.408 0 106.283 15.13 144.486 40.73 45.188 30.255 75.264 75.43 85.154 128.759h-229.628v165.047h401.847c5.043-27.93 7.757-57.020 7.757-87.275 0-129.941-46.545-239.326-127.223-313.604-70.592-65.156-167.198-103.356-282.394-103.356-166.788 0-311.080 95.612-381.286 235.055-28.89 57.596-45.37 122.773-45.37 191.612 0 68.843 16.483 134.005 45.378 191.604 70.207 139.444 214.49 235.063 381.278 235.063 115.008 0 211.593-42.279 285.483-111.128l-122.377-122.377z" />
<glyph unicode="&#xe901;" glyph-name="salesloft" d="M441.173 811.212c-71.312 0-127.025-46.464-127.025-103.99 0-76.008 79.484-127.413 165.639-183.13 101.939-65.929 213.214-137.894 213.214-263.804-4.454-121.69-109.197-236.74-267.425-238.955-131.485 0-254.054 70.801-254.054 70.801l53.485 269.931h20.057c8.914-143.817 46.8-280.994 211.714-280.994 62.396 0 118.11 42.039 118.11 103.991 0 103.821-88.917 156.898-179.831 211.162-95.078 56.747-192.335 114.799-192.335 233.56 4.457 214.616 258.511 289.843 465.768 219.041l-28.971-298.693h-20.058c-31.202 219.042-86.912 261.080-178.287 261.080zM776.649 166.967c-41.702 0-73.489-33.429-73.489-72.764s29.803-74.731 75.499-72.764c41.707 0 73.493 33.429 73.493 72.764s-31.787 72.764-75.503 72.764z" />
<glyph unicode="&#xe902;" glyph-name="hubspot" d="M751.97 608.269v111.779c14.763 6.904 27.26 17.861 36.041 31.596s13.483 29.683 13.559 45.988v2.567c0 47.539-38.515 86.077-86.020 86.077h-2.569c-22.814 0-44.693-9.069-60.821-25.211-16.132-16.143-25.195-38.036-25.195-60.866v-2.567c0.073-16.305 4.774-32.253 13.555-45.988s21.278-24.692 36.041-31.596v-111.779c-42.428-6.501-82.381-24.103-115.823-51.025l-306.36 238.771c2.185 7.892 3.325 16.005 3.452 24.15 0.038 19.183-5.612 37.947-16.232 53.917s-25.736 28.43-43.434 35.803c-17.698 7.373-37.184 9.328-55.993 5.618s-36.096-12.919-49.673-26.461c-13.578-13.542-22.837-30.81-26.606-49.619s-1.879-38.314 5.431-56.048c7.31-17.734 19.712-32.9 35.637-43.58s34.658-16.393 53.828-16.419c16.772 0.079 33.229 4.559 47.729 12.994l301.673-234.904c-27.102-40.969-41.242-89.156-40.572-138.283 0.666-49.122 16.107-96.909 44.309-137.126l-91.754-91.844c-7.417 2.377-15.144 3.635-22.93 3.742-15.736-0.013-31.116-4.693-44.195-13.449-13.079-8.759-23.27-21.197-29.287-35.746s-7.587-30.558-4.514-46.003c3.073-15.441 10.652-29.628 21.779-40.764 11.127-11.132 25.303-18.718 40.736-21.794 15.433-3.072 31.431-1.502 45.97 4.518 14.541 6.020 26.974 16.218 35.725 29.308 8.751 13.086 13.427 28.476 13.44 44.224-0.102 7.791-1.361 15.522-3.738 22.942l90.769 90.863c29.602-22.801 64.026-38.524 100.634-45.956 36.608-7.437 74.432-6.387 110.575 3.068s69.641 27.059 97.933 51.469c28.288 24.41 50.624 54.976 65.284 89.357 14.665 34.377 21.265 71.659 19.307 108.988-1.963 37.329-12.433 73.715-30.618 106.368s-43.597 60.705-74.291 82.012c-30.69 21.307-65.852 35.301-102.784 40.911zM714.347 240.636c-16.777-0.461-33.476 2.445-49.109 8.55s-29.884 15.283-41.911 26.995c-12.032 11.708-21.594 25.711-28.122 41.182s-9.89 32.094-9.89 48.887c0 16.794 3.362 33.412 9.89 48.883s16.090 29.474 28.122 41.186c12.028 11.708 26.278 20.885 41.911 26.991s32.333 9.011 49.109 8.55c32.512-1.139 63.313-14.861 85.918-38.272 22.605-23.415 35.247-54.694 35.264-87.249s-12.595-63.842-35.174-87.279c-22.579-23.437-53.367-37.188-85.884-38.362z" />
<glyph unicode="&#xe903;" glyph-name="outreach" d="M459.593 890.458c143.927 0 360.602-44.587 462.293-145.493 25.813-25.813 59.447-75.875 59.447-150.187 0-131.414-105.6-332.447-221.367-449.78-60.233-60.228-155.665-139.234-284.732-139.234-125.936 0-222.15 86.046-249.527 113.421-106.382 107.166-183.040 269.086-183.040 420.838 0 95.431 27.378 179.129 96.213 248.747 64.142 64.925 174.435 101.689 320.713 101.689zM637.939 367.151c48.495 48.499 61.794 108.732 61.794 141.585 0 24.247-6.259 59.447-35.981 89.171-46.153 46.151-96.213 58.667-151.753 58.667-69.619 0-116.551-21.902-147.84-53.191-24.249-24.249-45.369-62.578-45.369-116.552s28.16-105.6 59.449-136.887c28.942-28.945 73.527-50.065 119.68-50.065s91.52 18.773 140.019 67.273z" />
<glyph unicode="&#xe904;" glyph-name="salesforce" d="M653.602 468.288c0-9.314-1.737-16.661-5.141-21.871-3.392-5.137-8.516-7.654-15.659-7.654-7.138 0-12.245 2.496-15.59 7.62-3.366 5.175-5.069 12.557-5.069 21.871 0 9.31 1.711 16.623 5.069 21.764 3.341 5.103 8.418 7.552 15.59 7.552 7.177 0 12.279-2.47 15.659-7.552 3.422-5.141 5.141-12.42 5.141-21.73zM829.871 477.261l38.801-0.004c-0.363 5.001-1.344 9.468-3.584 12.83-3.383 5.090-8.107 7.898-15.245 7.898-7.142 0-12.224-2.795-15.556-7.898-2.227-3.345-3.648-7.654-4.416-12.826zM394.237 477.261l38.804-0.004c-0.371 5.001-1.348 9.468-3.588 12.83-3.381 5.090-8.106 7.898-15.246 7.898s-12.217-2.795-15.556-7.898c-2.224-3.345-3.645-7.654-4.414-12.826zM276.618 441.728c-2.135 1.702-2.432 2.121-3.139 3.23-1.080 1.664-1.632 4.036-1.632 7.070 0 4.762 1.587 8.209 4.863 10.522-0.034-0.009 4.691 4.070 15.798 3.93 4.943-0.090 9.875-0.508 14.762-1.259v-24.73c0 0-6.892-1.489-14.687-1.958-11.072-0.666-16.001 3.204-15.966 3.196zM552.252 756.026c62.084 0 115.895-34.492 144.866-85.885 25.719 11.497 53.577 17.433 81.749 17.419 111.753 0 202.466-91.404 202.466-204.193s-90.714-204.194-202.466-204.194c-13.662 0-26.974 1.374-40.013 3.968-25.353-45.184-73.813-75.883-128.998-75.883-22.473-0.043-44.651 5.052-64.849 14.899-25.694-60.361-85.538-102.784-155.212-102.784-72.778 0-134.519 45.875-158.319 110.374-10.592-2.236-21.39-3.362-32.215-3.354-86.575 0-156.594 71.053-156.594 158.319 0 58.637 31.526 109.683 78.297 137.276-9.922 22.86-15.030 47.517-15.004 72.435 0 100.717 81.746 182.118 182.463 182.118 58.982 0 111.754-28.111 144.866-71.744l-0.034 0.179c30.285 31.526 72.435 51.048 118.997 51.048zM602.957 545.466c-1.762 0.533-3.558 0.96-5.376 1.276-2.445 0.408-4.919 0.599-7.394 0.573-9.843 0-17.6-2.78-23.044-8.271-5.41-5.449-9.088-13.753-10.935-24.676l-0.666-3.686h-12.352c0 0-1.506 0.060-1.822-1.583l-2.031-11.315c-0.141-1.084 0.324-1.758 1.775-1.749h12.023l-12.198-68.1c-0.956-5.483-2.052-9.997-3.26-13.414-1.195-3.371-2.359-5.901-3.797-7.735-1.387-1.775-2.705-3.085-4.979-3.844-1.877-0.631-4.036-0.922-6.4-0.922-1.318 0-3.072 0.222-4.365 0.478-1.263 0.252-1.933 0.533-2.867 0.922l-0.068 0.030c0 0-1.412 0.538-1.967-0.875-0.452-1.156-3.657-9.967-4.036-11.059-0.384-1.075 0.158-1.924 0.841-2.167 1.6-0.572 2.79-0.939 4.971-1.455 3.029-0.713 5.581-0.755 7.97-0.755 5.009 0 9.57 0.7 13.355 2.069 3.81 1.374 7.121 3.772 10.057 7.019 3.17 3.499 5.163 7.168 7.070 12.169 1.886 4.954 3.494 11.11 4.779 18.278l12.258 69.363h17.924c0 0 1.51-0.055 1.826 1.583l2.027 11.311c0.141 1.084-0.32 1.762-1.775 1.754h-17.395l0.068 0.435c0.243 1.553 1.067 6.831 2.803 11.836 0.853 2.462 2.458 4.442 3.814 5.807 1.271 1.297 2.833 2.27 4.557 2.833 1.89 0.585 3.861 0.87 5.841 0.845 1.638 0 3.247-0.201 4.467-0.452 1.69-0.358 2.342-0.55 2.786-0.683 1.771-0.542 2.010-0.017 2.359 0.845l4.16 11.422c0.427 1.228-0.614 1.745-1.003 1.897zM359.879 427.789v116.129c0 0.907-0.649 1.642-1.559 1.642h-14.428c-0.914 0-1.562-0.735-1.562-1.642v-116.129c0-0.909 0.649-1.651 1.562-1.651h14.428c0.911 0 1.559 0.742 1.559 1.651zM179.392 435.947c-0.488-1.271-0.025-1.711 0.257-1.98 0.059-0.055 0.11-0.102 0.143-0.149 1.351-0.981 2.718-1.749 4.090-2.526l1.256-0.717c9.589-5.069 18.626-6.554 28.077-6.554 19.247 0 31.215 10.244 31.215 26.735v0.324c0 15.245-13.521 20.796-26.145 24.764l-1.652 0.533c-9.554 3.098-17.798 5.794-17.798 12.075v0.32c0 5.38 4.829 9.348 12.279 9.348 8.278 0 18.143-2.756 24.455-6.246 0 0 1.869-1.203 2.549 0.597 0.369 0.977 3.587 9.591 3.932 10.556 0.366 1.011-0.276 1.775-0.935 2.167-7.244 4.412-17.246 7.415-27.594 7.415l-1.921-0.009c-17.625 0-29.939-10.658-29.939-25.903v-0.329c0-16.073 13.59-21.316 26.283-24.939l2.042-0.631c9.244-2.842 17.246-5.312 17.246-11.797v-0.324c0-5.969-5.208-10.415-13.555-10.415-3.246 0-13.59 0.055-24.8 7.138-0.806 0.469-1.405 0.862-1.979 1.237-0.391 0.252-0.771 0.499-1.195 0.759-0.552 0.333-1.932 0.939-2.532-0.87l-3.78-10.581zM461.18 435.977c-0.491-1.28-0.026-1.715 0.26-1.984 0.060-0.055 0.111-0.102 0.145-0.149 1.34-0.977 2.709-1.745 4.079-2.517l1.267-0.721c9.587-5.069 18.624-6.554 28.075-6.554 19.247 0 31.219 10.244 31.219 26.731v0.324c0 15.245-13.487 20.8-26.146 24.764l-1.651 0.538c-9.557 3.098-17.801 5.794-17.801 12.070v0.32c0 5.38 4.83 9.348 12.279 9.348 8.277 0 18.108-2.756 24.457-6.242 0 0 1.869-1.207 2.551 0.597 0.367 0.977 3.588 9.587 3.895 10.556 0.371 1.007-0.273 1.771-0.93 2.163-7.241 4.416-17.246 7.415-27.593 7.415l-1.924-0.004c-17.626 0-29.939-10.658-29.939-25.903v-0.329c0-16.073 13.589-21.316 26.283-24.939l2.039-0.636c9.276-2.842 17.246-5.312 17.246-11.797v-0.324c0-5.965-5.21-10.415-13.555-10.415-3.255 0-13.628 0.055-24.802 7.138-1.045 0.61-1.758 1.075-2.5 1.562l-0.674 0.439c-0.35 0.218-1.975 0.853-2.53-0.87l-3.793-10.556 0.043-0.026zM669.675 485.534c-1.583 5.346-4.036 10.035-7.313 13.969-3.277 3.93-7.415 7.104-12.348 9.382-4.898 2.291-10.692 3.447-17.246 3.447s-12.314-1.161-17.246-3.447c-4.898-2.291-9.071-5.453-12.348-9.382-3.268-3.934-5.726-8.623-7.313-13.969-1.57-5.312-2.364-11.106-2.364-17.28s0.794-11.968 2.364-17.28c1.579-5.346 4.036-10.039 7.313-13.969 3.281-3.934 7.45-7.074 12.348-9.314 4.932-2.236 10.726-3.375 17.246-3.375s12.314 1.139 17.212 3.375c4.898 2.236 9.071 5.38 12.348 9.314 3.273 3.93 5.726 8.623 7.313 13.969 1.566 5.312 2.364 11.106 2.364 17.28 0 6.14-0.764 11.968-2.33 17.28zM801.745 441.382c-0.529 1.562-2.052 0.973-2.052 0.973-2.334-0.892-4.83-1.719-7.484-2.133-2.675-0.422-5.658-0.631-8.798-0.631-7.757 0-13.969 2.313-18.381 6.899-4.45 4.587-6.933 11.968-6.899 21.969 0.021 9.105 2.223 15.936 6.174 21.18 3.895 5.171 9.899 7.863 17.83 7.863 6.622 0 11.695-0.768 17.007-2.432 0 0 1.259-0.546 1.86 1.109l1.301 3.58c0.845 2.313 1.651 4.523 2.667 7.39 0.427 1.225-0.623 1.741-1.003 1.89-2.086 0.815-7.002 2.15-10.726 2.714-3.486 0.529-7.522 0.806-12.075 0.806-6.758 0-12.762-1.156-17.899-3.447-5.141-2.287-9.489-5.449-12.937-9.382-3.447-3.93-6.071-8.623-7.829-13.969-1.741-5.312-2.62-11.14-2.62-17.314 0-13.312 3.584-24.111 10.692-32.009 7.104-7.932 17.796-11.934 31.731-11.934 8.243 0 16.695 1.664 22.763 4.070 0 0 1.161 0.559 0.657 1.911l-3.981 10.897zM884.023 488.636c-1.37 5.141-4.762 10.351-6.967 12.727-3.52 3.763-6.933 6.417-10.347 7.868-4.932 2.095-10.236 3.17-15.59 3.162-6.797 0-12.971-1.148-17.971-3.486-5.001-2.351-9.212-5.551-12.523-9.553-3.307-4.002-5.794-8.725-7.381-14.14-1.587-5.346-2.385-11.213-2.385-17.353 0-6.276 0.832-12.105 2.466-17.382 1.651-5.312 4.309-9.967 7.898-13.833 3.588-3.895 8.175-6.933 13.696-9.071 5.483-2.121 12.139-3.221 19.763-3.196 15.727 0.051 24.004 3.55 27.388 5.449 0.602 0.337 1.169 0.922 0.461 2.603l-3.554 9.967c-0.546 1.485-2.048 0.947-2.048 0.947l-1.075-0.41c-3.857-1.485-9.485-3.657-21.274-3.627-8.452 0.017-14.694 2.509-18.628 6.417-4.002 4.002-6.003 9.83-6.31 18.108l54.498-0.043c0 0 1.434 0.017 1.583 1.417l0.026 0.213c0.23 1.66 1.626 11.708-1.651 23.206l-0.073 0.009zM448.388 488.636c-1.365 5.141-4.762 10.351-6.967 12.727-3.52 3.763-6.933 6.417-10.347 7.868-4.931 2.095-10.234 3.17-15.591 3.162-6.795 0-12.969-1.148-17.97-3.486-5.001-2.351-9.209-5.551-12.521-9.553-3.301-4.002-5.795-8.725-7.381-14.14-1.583-5.346-2.38-11.213-2.38-17.353 0-6.276 0.824-12.105 2.47-17.382 1.649-5.312 4.311-9.967 7.864-13.833 3.587-3.895 8.175-6.933 13.693-9.071 5.484-2.121 12.107-3.221 19.764-3.196 15.73 0.051 24.008 3.55 27.387 5.449 0.602 0.337 1.173 0.922 0.461 2.603l-3.554 9.967c-0.55 1.485-2.052 0.947-2.052 0.947l-1.075-0.41c-3.857-1.485-9.485-3.657-21.276-3.627-8.416 0.017-14.694 2.509-18.626 6.417-4.001 4.002-6.002 9.83-6.312 18.108l54.496-0.043c0 0 1.438 0.017 1.583 1.417l0.030 0.213c0.23 1.66 1.626 11.708-1.655 23.206l-0.038 0.009zM298.279 480.013c-2.208 0.162-5.070 0.243-8.485 0.243-4.656 0-9.175-0.58-13.383-1.719-4.242-1.143-8.071-2.918-11.348-5.274-3.286-2.347-5.989-5.414-7.899-8.969-1.928-3.588-2.911-7.795-2.911-12.557 0-4.83 0.838-9.003 2.494-12.416 1.622-3.388 4.064-6.315 7.105-8.521 3.025-2.202 6.761-3.827 11.072-4.796 4.277-0.973 9.106-1.468 14.417-1.468 5.588 0 11.141 0.469 16.522 1.374 4.583 0.794 9.148 1.681 13.693 2.667 1.814 0.414 3.828 0.964 3.828 0.964 1.345 0.341 1.242 1.779 1.242 1.779l-0.031 49.668c0 10.901-2.911 19.004-8.657 24.009-5.726 5.001-14.107 7.518-24.972 7.518-4.070 0-10.658-0.55-14.59-1.34 0 0-11.865-2.304-16.763-6.14 0 0-1.076-0.666-0.49-2.163l3.863-10.351c0.48-1.34 1.787-0.879 1.787-0.879s0.41 0.158 0.893 0.448c10.451 5.687 23.696 5.517 23.696 5.517 5.864 0 10.417-1.19 13.452-3.52 2.97-2.278 4.484-5.722 4.484-12.966v-2.3c-4.656 0.674-8.968 1.062-8.968 1.062l-0.052 0.128zM736.329 508.058c0.077 0.179 0.119 0.375 0.119 0.576 0 0.196-0.038 0.393-0.115 0.576-0.073 0.183-0.188 0.35-0.329 0.486-0.141 0.141-0.307 0.247-0.495 0.32-0.926 0.35-5.551 1.327-9.105 1.549-6.831 0.427-10.624-0.725-14.037-2.257-3.375-1.519-7.104-3.968-9.173-6.793l-0.009 6.622c0 0.909-0.644 1.643-1.562 1.643h-13.935c-0.905 0-1.562-0.734-1.562-1.643v-81.058c0.004-0.435 0.175-0.858 0.486-1.165 0.311-0.311 0.73-0.486 1.169-0.486h14.276c0.439 0 0.858 0.175 1.169 0.486 0.307 0.307 0.482 0.73 0.482 1.165v40.7c0 5.453 0.597 10.867 1.796 14.281 1.178 3.379 2.782 6.071 4.762 8.004 1.882 1.865 4.19 3.247 6.724 4.036 2.377 0.678 4.838 1.028 7.313 1.024 2.846 0 5.965-0.73 5.965-0.73 1.050-0.115 1.634 0.525 1.988 1.468 0.934 2.487 3.588 9.937 4.105 11.418l-0.034-0.222z" />
<glyph unicode="&#xe905;" glyph-name="linkedin" d="M843.853 21.333h-663.705c-52.365 0-94.815 42.449-94.815 94.814v663.705c0 52.365 42.45 94.815 94.815 94.815h663.705c52.365 0 94.814-42.45 94.814-94.815v-663.705c0-52.365-42.449-94.814-94.814-94.814zM693.517 139.853h126.63v260.134c0 110.063-62.391 163.281-149.538 163.281-87.189 0-123.883-67.896-123.883-67.896v55.343h-122.035v-410.863h122.035v215.676c0 57.792 26.603 92.181 77.521 92.181 46.801 0 69.269-33.045 69.269-92.181v-215.676zM203.852 680.332c0-41.869 33.684-75.817 75.252-75.817s75.231 33.948 75.231 75.817c0 41.868-33.664 75.816-75.231 75.816s-75.252-33.948-75.252-75.816zM343.341 139.853v410.863h-127.252v-410.863h127.252z" />
<glyph unicode="&#xe906;" glyph-name="triangle" d="M853.764 21.76h-683.522c-45.653 0-70.827 0-93.44 16.623-19.2 14.067-31.573 35.806-33.707 60.1-2.986 27.281 9.813 49.442 32.427 89.51v0l341.76 605.261c22.615 40.067 34.989 62.231 60.162 73.74 22.187 10.23 47.36 10.23 69.12 0 24.747-11.508 37.547-33.673 60.16-73.74l341.76-605.688c22.613-40.068 34.987-62.229 32.427-89.51-2.56-23.868-14.933-46.033-34.133-60.1-22.187-16.623-47.36-16.623-93.013-16.623v0.427zM129.282 107.861c8.533-0.853 24.747-0.853 40.533-0.853h683.949c16.213 0 32.853 0 41.387 0.853-2.56 5.116-11.947 21.739-20.907 37.935l-341.76 605.261c-7.68 13.64-15.787 27.706-20.907 35.378-3.413-5.967-11.52-20.886-20.053-35.378l-341.762-605.261c-8.107-14.494-16.64-29.837-20.48-37.935z" />
<glyph unicode="&#xe907;" glyph-name="star-07" d="M512 917.333c23.565 0 42.667-19.103 42.667-42.667v-85.333c0-23.564-19.102-42.667-42.667-42.667s-42.667 19.103-42.667 42.667v85.333c0 23.564 19.102 42.667 42.667 42.667zM180.122 779.868c16.663 16.663 43.677 16.663 60.34 0l60.34-60.34c16.663-16.663 16.663-43.677 0-60.34s-43.677-16.662-60.34 0l-60.34 60.34c-16.662 16.662-16.662 43.677 0 60.34zM843.866 779.868c16.661-16.662 16.661-43.677 0-60.34l-60.343-60.34c-16.661-16.662-43.674-16.662-60.339 0-16.661 16.663-16.661 43.677 0 60.34l60.339 60.34c16.666 16.663 43.678 16.663 60.343 0zM512 704c16.239 0 31.070-9.219 38.259-23.782l56.004-113.454 125.239-18.306c16.068-2.348 29.41-13.613 34.415-29.060 5.009-15.445 0.819-32.393-10.816-43.725l-90.59-88.235 21.38-124.655c2.748-16.004-3.836-32.183-16.977-41.732-13.137-9.545-30.558-10.803-44.937-3.243l-111.979 58.893-111.981-58.893c-14.375-7.561-31.796-6.302-44.936 3.243-13.14 9.549-19.722 25.728-16.976 41.732l21.38 124.655-90.59 88.235c-11.632 11.332-15.825 28.279-10.817 43.725s18.349 26.711 34.416 29.060l125.242 18.306 56.003 113.454c7.189 14.563 22.020 23.782 38.259 23.782zM512 564.939l-27.661-56.036c-6.208-12.582-18.206-21.303-32.090-23.334l-61.917-9.050 44.77-43.605c10.065-9.805 14.66-23.932 12.284-37.777l-10.556-61.555 55.309 29.090c12.433 6.537 27.29 6.537 39.723 0l55.309-29.090-10.556 61.555c-2.377 13.845 2.219 27.972 12.284 37.777l44.77 43.605-61.918 9.050c-13.884 2.031-25.882 10.752-32.090 23.334l-27.661 56.036zM42.667 448c0 23.565 19.103 42.667 42.667 42.667h85.333c23.564 0 42.667-19.102 42.667-42.667s-19.103-42.667-42.667-42.667h-85.333c-23.564 0-42.667 19.102-42.667 42.667zM810.667 448c0 23.565 19.102 42.667 42.667 42.667h85.333c23.565 0 42.667-19.102 42.667-42.667s-19.102-42.667-42.667-42.667h-85.333c-23.565 0-42.667 19.102-42.667 42.667zM300.801 236.809c16.663-16.661 16.663-43.674 0-60.339l-60.34-60.339c-16.663-16.661-43.677-16.661-60.34 0s-16.662 43.678 0 60.339l60.34 60.339c16.662 16.666 43.677 16.666 60.34 0zM723.183 236.809c16.666 16.666 43.678 16.666 60.339 0l60.343-60.339c16.661-16.661 16.661-43.678 0-60.339-16.666-16.661-43.678-16.661-60.343 0l-60.339 60.339c-16.661 16.666-16.661 43.678 0 60.339zM512 149.333c23.565 0 42.667-19.102 42.667-42.667v-85.333c0-23.565-19.102-42.667-42.667-42.667s-42.667 19.102-42.667 42.667v85.333c0 23.565 19.102 42.667 42.667 42.667z" />
<glyph unicode="&#xe908;" glyph-name="star-06" d="M192 917.333c23.564 0 42.667-19.103 42.667-42.667v-64h64c23.564 0 42.667-19.103 42.667-42.667s-19.103-42.667-42.667-42.667h-64v-64c0-23.564-19.103-42.667-42.667-42.667s-42.667 19.103-42.667 42.667v64h-64c-23.564 0-42.667 19.103-42.667 42.667s19.103 42.667 42.667 42.667h64v64c0 23.564 19.103 42.667 42.667 42.667zM554.667 874.667c17.655 0 33.485-10.873 39.821-27.35l73.993-192.378c12.817-33.325 16.845-42.928 22.353-50.676 5.53-7.774 12.322-14.566 20.096-20.094 7.748-5.51 17.353-9.537 50.675-22.354l192.38-73.993c16.478-6.336 27.349-22.165 27.349-39.821s-10.871-33.485-27.349-39.821l-192.38-73.993c-33.323-12.817-42.927-16.845-50.675-22.353-7.774-5.53-14.566-12.322-20.096-20.096-5.508-7.748-9.536-17.353-22.353-50.675l-73.993-192.38c-6.336-16.478-22.165-27.349-39.821-27.349s-33.485 10.871-39.821 27.349l-73.993 192.38c-12.817 33.323-16.846 42.927-22.355 50.675-5.528 7.774-12.32 14.566-20.094 20.096-7.748 5.508-17.351 9.536-50.676 22.353l-192.378 73.993c-16.477 6.336-27.35 22.165-27.35 39.821s10.873 33.485 27.35 39.821l192.378 73.993c33.325 12.817 42.928 16.845 50.676 22.354 7.774 5.528 14.566 12.32 20.094 20.094 5.51 7.748 9.538 17.351 22.355 50.676l73.993 192.378c6.336 16.477 22.165 27.35 39.821 27.35zM554.667 713.144l-34.167-88.839c-0.567-1.471-1.126-2.923-1.677-4.356-10.389-27.062-18.24-47.504-30.78-65.137-11.055-15.549-24.64-29.134-40.188-40.189-17.634-12.54-38.076-20.39-65.137-30.78-1.434-0.55-2.885-1.109-4.356-1.677l-88.839-34.167 88.839-34.167c1.471-0.567 2.923-1.126 4.356-1.677 27.062-10.389 47.504-18.24 65.138-30.78 15.548-11.055 29.133-24.64 40.188-40.188 12.54-17.634 20.39-38.076 30.78-65.139 0.55-1.434 1.109-2.884 1.677-4.356l34.167-88.836 34.167 88.836c0.567 1.472 1.126 2.923 1.677 4.356 10.389 27.063 18.24 47.505 30.78 65.139 11.055 15.548 24.64 29.133 40.188 40.188 17.634 12.54 38.076 20.39 65.139 30.78 1.434 0.55 2.884 1.109 4.356 1.677l88.836 34.167-88.836 34.167c-1.472 0.567-2.923 1.126-4.356 1.677-27.063 10.389-47.505 18.24-65.139 30.78-15.548 11.055-29.133 24.64-40.188 40.189-12.54 17.633-20.39 38.075-30.78 65.137-0.55 1.433-1.109 2.885-1.677 4.356l-34.167 88.839zM192 277.333c23.564 0 42.667-19.102 42.667-42.667v-64h64c23.564 0 42.667-19.102 42.667-42.667s-19.103-42.667-42.667-42.667h-64v-64c0-23.565-19.103-42.667-42.667-42.667s-42.667 19.102-42.667 42.667v64h-64c-23.564 0-42.667 19.102-42.667 42.667s19.103 42.667 42.667 42.667h64v64c0 23.565 19.103 42.667 42.667 42.667z" />
<glyph unicode="&#xe909;" glyph-name="star-05" d="M512 917.333c19.58 0 36.642-13.325 41.391-32.318l55.531-222.123c11.563-46.251 15.458-59.644 22.084-70.001 6.656-10.399 15.488-19.23 25.886-25.885 10.355-6.627 23.748-10.521 69.999-22.084l222.123-55.532c18.995-4.745 32.32-21.811 32.32-41.391s-13.325-36.646-32.32-41.391l-222.123-55.531c-46.251-11.563-59.644-15.458-69.999-22.084-10.398-6.656-19.23-15.488-25.886-25.886-6.626-10.355-10.522-23.748-22.084-69.999l-55.531-222.123c-4.745-18.995-21.811-32.32-41.391-32.32s-36.642 13.325-41.391 32.32l-55.532 222.123c-11.563 46.251-15.457 59.644-22.084 69.999-6.654 10.398-15.485 19.23-25.885 25.886-10.356 6.626-23.75 10.522-70.001 22.084l-222.122 55.531c-18.993 4.745-32.318 21.811-32.318 41.391s13.325 36.646 32.318 41.391l222.123 55.532c46.251 11.563 59.644 15.457 70.001 22.084 10.399 6.654 19.23 15.485 25.885 25.885 6.627 10.356 10.521 23.75 22.084 70.001l55.532 222.122c4.745 18.993 21.811 32.318 41.391 32.318zM512 698.747l-14.14-56.551c-0.516-2.069-1.024-4.111-1.527-6.126-9.314-37.361-16.337-65.535-31.462-89.172-13.308-20.797-30.972-38.461-51.769-51.769-23.638-15.125-51.811-22.148-89.172-31.462-2.015-0.503-4.056-1.011-6.125-1.527l-56.551-14.14 56.551-14.14c2.069-0.516 4.111-1.024 6.125-1.527 37.361-9.314 65.535-16.337 89.172-31.462 20.797-13.308 38.461-30.972 51.769-51.767 15.125-23.637 22.148-51.81 31.462-89.173 0.503-2.014 1.011-4.058 1.527-6.127l14.14-56.55 14.14 56.55c0.516 2.069 1.024 4.113 1.527 6.127 9.314 37.363 16.337 65.536 31.462 89.173 13.308 20.796 30.972 38.46 51.767 51.767 23.637 15.125 51.81 22.148 89.173 31.462 2.014 0.503 4.058 1.011 6.127 1.527l56.55 14.14-56.55 14.14c-2.069 0.516-4.113 1.024-6.127 1.527-37.359 9.314-65.536 16.337-89.173 31.462-20.796 13.308-38.46 30.972-51.767 51.769-15.125 23.638-22.148 51.811-31.462 89.172-0.503 2.015-1.011 4.056-1.527 6.125l-14.14 56.551z" />
<glyph unicode="&#xe90a;" glyph-name="star-04" d="M512 917.333c17.655 0 33.485-10.873 39.821-27.35l85.845-223.193c12.817-33.324 16.845-42.927 22.353-50.675 5.53-7.774 12.322-14.567 20.096-20.095 7.748-5.509 17.353-9.537 50.675-22.354l223.194-85.845c16.478-6.336 27.349-22.165 27.349-39.821s-10.871-33.485-27.349-39.821l-223.194-85.845c-33.323-12.817-42.927-16.845-50.675-22.353-7.774-5.53-14.566-12.322-20.096-20.096-5.508-7.748-9.536-17.348-22.353-50.675l-85.845-223.194c-6.336-16.478-22.165-27.349-39.821-27.349s-33.485 10.871-39.821 27.349l-85.845 223.194c-12.817 33.323-16.845 42.927-22.354 50.675-5.528 7.774-12.32 14.566-20.095 20.096-7.748 5.508-17.351 9.536-50.675 22.353l-223.193 85.845c-16.477 6.336-27.35 22.165-27.35 39.821s10.873 33.485 27.35 39.821l223.193 85.845c33.325 12.817 42.928 16.845 50.676 22.354 7.774 5.528 14.567 12.32 20.095 20.095 5.509 7.748 9.537 17.351 22.354 50.675l85.845 223.193c6.336 16.477 22.165 27.35 39.821 27.35zM512 755.811l-46.020-119.654c-0.567-1.471-1.122-2.923-1.673-4.356-10.394-27.062-18.244-47.504-30.784-65.137-11.055-15.549-24.639-29.133-40.188-40.188-17.633-12.54-38.075-20.39-65.137-30.784-1.433-0.55-2.885-1.105-4.356-1.673l-119.654-46.020 119.654-46.020c1.471-0.567 2.922-1.122 4.355-1.673 27.062-10.394 47.504-18.244 65.137-30.784 15.549-11.055 29.133-24.64 40.188-40.188 12.54-17.634 20.39-38.076 30.784-65.135 0.55-1.434 1.105-2.889 1.673-4.356l46.020-119.654 46.020 119.654c0.567 1.468 1.122 2.923 1.673 4.356 10.394 27.059 18.244 47.501 30.784 65.135 11.055 15.548 24.64 29.133 40.188 40.188 17.634 12.54 38.076 20.39 65.139 30.784 1.429 0.55 2.884 1.105 4.352 1.673l119.654 46.020-119.654 46.020c-1.468 0.567-2.923 1.122-4.352 1.673-27.063 10.394-47.505 18.244-65.139 30.784-15.548 11.055-29.133 24.639-40.188 40.188-12.54 17.633-20.39 38.075-30.784 65.137-0.55 1.433-1.105 2.885-1.673 4.356l-46.020 119.654z" />
<glyph unicode="&#xe90b;" glyph-name="star-03" d="M484.915 886.391c17.156 8.007 36.975 8.007 54.131 0 14.686-6.853 22.997-18.688 27.29-25.381 4.348-6.778 8.819-15.385 13.12-23.671 0.226-0.434 0.452-0.868 0.678-1.3l61.606-118.586 132.565 26.052c9.161 1.802 18.675 3.674 26.688 4.501 7.906 0.816 22.345 1.697 36.855-5.511 16.96-8.421 29.316-23.918 33.754-42.323 3.797-15.754-0.273-29.631-2.829-37.161-2.59-7.626-6.532-16.487-10.33-25.017l-54.895-123.443 103.023-87.398c7.117-6.042 14.515-12.314 20.156-18.061 5.568-5.675 15.258-16.41 18.671-32.252 3.989-18.509-0.422-37.833-12.045-52.774-9.95-12.791-23.334-18.261-30.818-20.958-7.573-2.731-16.96-5.175-25.993-7.526l-130.743-34.044-4.1-135.040c-0.282-9.331-0.572-19.025-1.549-27.017-0.964-7.893-3.319-22.165-13.577-34.709-11.981-14.656-29.841-23.258-48.772-23.488-16.201-0.196-28.826 6.861-35.597 11.029-6.861 4.22-14.622 10.035-22.093 15.633l-108.13 80.99-108.136-80.99c-7.471-5.598-15.231-11.413-22.090-15.633-6.772-4.169-19.396-11.226-35.599-11.029-18.931 0.23-36.789 8.832-48.772 23.488-10.257 12.544-12.61 26.816-13.575 34.709-0.977 7.991-1.269 17.685-1.55 27.017l-4.1 135.040-130.74 34.044c-9.034 2.351-18.42 4.796-25.996 7.526-7.48 2.697-20.868 8.166-30.817 20.958-11.624 14.942-16.034 34.266-12.046 52.774 3.414 15.842 13.103 26.577 18.672 32.252 5.641 5.747 13.037 12.019 20.157 18.057 0.373 0.32 0.746 0.636 1.118 0.951l101.903 86.451-54.301 122.105c-0.198 0.445-0.397 0.892-0.596 1.339-3.795 8.529-7.738 17.39-10.326 25.015-2.556 7.529-6.626 21.407-2.829 37.161 4.437 18.405 16.795 33.902 33.751 42.323 14.513 7.208 28.949 6.327 36.858 5.511 8.010-0.826 17.526-2.699 26.686-4.501 0.48-0.094 0.96-0.189 1.438-0.283l131.127-25.769 61.611 118.586c0.222 0.433 0.448 0.866 0.674 1.3 4.301 8.285 8.772 16.893 13.12 23.671 4.292 6.693 12.604 18.528 27.29 25.381zM511.983 782.122l-56.986-109.682c-0.235-0.454-0.503-0.987-0.806-1.588-2.889-5.717-8.883-17.591-18.884-26.118-8.397-7.157-18.5-12.023-29.33-14.124-12.902-2.504-25.923 0.212-32.194 1.52-0.659 0.137-1.244 0.259-1.746 0.358l-121.281 23.834 50.224-112.937c0.208-0.467 0.457-1.010 0.737-1.623 2.67-5.822 8.215-17.915 8.646-31.048 0.361-11.025-2.134-21.961-7.244-31.735-6.086-11.648-16.329-20.134-21.26-24.222-0.518-0.431-0.978-0.811-1.369-1.143l-94.252-79.962 119.612-31.147c0.495-0.128 1.075-0.273 1.729-0.435 6.217-1.545 19.127-4.745 29.664-12.599 8.846-6.592 15.837-15.36 20.296-25.451 5.312-12.019 5.562-25.318 5.682-31.723 0.013-0.674 0.024-1.271 0.040-1.783l3.751-123.546 98.929 74.099c0.41 0.307 0.883 0.67 1.417 1.079 5.082 3.9 15.637 11.994 28.348 15.339 10.671 2.803 21.884 2.803 32.55 0 12.71-3.345 23.266-11.439 28.348-15.339 0.533-0.41 1.007-0.772 1.417-1.079l98.931-74.099 3.75 123.546c0.017 0.512 0.026 1.109 0.038 1.783 0.119 6.404 0.371 19.703 5.683 31.723 4.459 10.091 11.447 18.859 20.297 25.451 10.534 7.855 23.445 11.055 29.662 12.599 0.657 0.162 1.233 0.307 1.728 0.435l119.616 31.147-94.255 79.962c-0.388 0.333-0.849 0.713-1.37 1.143-4.928 4.087-15.172 12.574-21.257 24.222-5.111 9.775-7.607 20.71-7.245 31.735 0.431 13.133 5.973 25.226 8.644 31.048 0.282 0.612 0.529 1.155 0.738 1.623l50.223 112.937-121.28-23.834c-0.503-0.099-1.088-0.221-1.745-0.358-6.272-1.308-19.294-4.023-32.196-1.52-10.829 2.101-20.932 6.967-29.325 14.124-10.001 8.526-16 20.4-18.884 26.118-0.307 0.601-0.576 1.134-0.811 1.588l-56.981 109.682z" />
<glyph unicode="&#xe90c;" glyph-name="star-02" d="M485.922 890.295c16.597 7.406 35.563 7.406 52.16 0 13.939-6.219 22.221-16.859 26.701-23.224 4.369-6.216 8.879-14.062 13.111-21.434 0.23-0.406 0.465-0.81 0.695-1.213l80.956-140.874 162.475 0.329c0.465 0.001 0.934 0.002 1.404 0.003 8.499 0.019 17.545 0.040 25.114-0.639 7.753-0.695 21.107-2.55 33.463-11.511 14.711-10.671 24.196-27.093 26.078-45.169 1.583-15.181-3.486-27.674-6.763-34.736-3.196-6.894-7.735-14.72-12.002-22.071-0.235-0.405-0.469-0.809-0.704-1.21l-81.523-140.544 81.523-140.548c0.235-0.401 0.465-0.802 0.7-1.207 4.271-7.351 8.811-15.177 12.006-22.071 3.277-7.061 8.346-19.554 6.763-34.735-1.882-18.078-11.366-34.5-26.078-45.171-12.356-8.96-25.711-10.816-33.463-11.511-7.569-0.678-16.614-0.657-25.114-0.64l-163.878 0.333-81.651-142.089c-4.237-7.373-8.742-15.215-13.111-21.431-4.48-6.366-12.766-17.007-26.701-23.223-16.597-7.407-35.563-7.407-52.16 0-13.935 6.217-22.221 16.858-26.701 23.223-4.369 6.217-8.879 14.063-13.111 21.431l-81.65 142.089-163.878-0.333c-8.5-0.017-17.548-0.038-25.116 0.64-7.752 0.695-21.108 2.551-33.464 11.511-14.712 10.671-24.193 27.093-26.078 45.171-1.583 15.181 3.489 27.674 6.763 34.735 3.197 6.895 7.738 14.72 12.006 22.071 0.235 0.405 0.469 0.806 0.702 1.207l81.524 140.548-81.524 140.544c-0.233 0.402-0.467 0.806-0.702 1.211-4.267 7.351-8.809 15.177-12.005 22.071-3.274 7.061-8.346 19.555-6.763 34.736 1.885 18.077 11.366 34.499 26.078 45.169 12.355 8.961 25.712 10.816 33.464 11.511 7.569 0.679 16.617 0.658 25.117 0.639 0.468-0.001 0.935-0.002 1.399-0.003l162.478-0.329 80.955 140.874c0.23 0.403 0.465 0.807 0.695 1.213 4.233 7.371 8.742 15.217 13.111 21.432 4.48 6.365 12.766 17.005 26.701 23.224zM512 789.032l-76.019-132.291c-0.201-0.352-0.435-0.762-0.691-1.225-2.509-4.458-7.706-13.699-15.636-20.852-6.686-6.031-14.569-10.582-23.135-13.357-10.161-3.292-20.761-3.171-25.875-3.113-0.53 0.006-1.001 0.012-1.407 0.012l-152.578 0.309 76.556-131.983c0.204-0.35 0.444-0.755 0.714-1.212 2.608-4.399 8.012-13.521 10.241-23.966 1.879-8.802 1.879-17.907 0-26.714-2.229-10.445-7.633-19.563-10.241-23.966-0.271-0.452-0.511-0.858-0.714-1.212l-76.556-131.981 152.578 0.307c0.405 0.004 0.876 0.009 1.407 0.013 5.114 0.060 15.715 0.179 25.875-3.115 8.565-2.773 16.449-7.326 23.135-13.355 7.93-7.155 13.127-16.393 15.636-20.851 0.256-0.465 0.491-0.875 0.691-1.225l76.023-132.292 76.019 132.292c0.201 0.35 0.435 0.759 0.691 1.225 2.509 4.459 7.706 13.696 15.637 20.851 6.686 6.029 14.566 10.581 23.134 13.355 10.159 3.294 20.762 3.174 25.873 3.115 0.533-0.004 1.003-0.009 1.408-0.013l152.58-0.307-76.557 131.981c-0.205 0.354-0.444 0.759-0.717 1.212-2.607 4.403-8.009 13.521-10.24 23.966-1.877 8.806-1.877 17.911 0 26.714 2.231 10.445 7.633 19.567 10.24 23.966 0.273 0.457 0.512 0.862 0.717 1.212l76.557 131.983-152.58-0.309c-0.405 0-0.875-0.006-1.408-0.012-5.111-0.058-15.714-0.179-25.873 3.113-8.567 2.775-16.448 7.327-23.134 13.357-7.932 7.153-13.129 16.393-15.637 20.852-0.256 0.462-0.491 0.873-0.691 1.225l-76.023 132.291z" />
<glyph unicode="&#xe90d;" glyph-name="star-01" d="M484.459 884.239c17.421 8.307 37.662 8.307 55.087 0 15.061-7.182 23.364-19.651 27.554-26.491 4.331-7.072 8.772-16.080 13.107-24.861 0.218-0.448 0.439-0.896 0.661-1.343l91.315-184.994 205.739-30.072c9.685-1.414 19.622-2.864 27.686-4.802 7.795-1.875 22.212-5.931 33.685-18.041 13.274-14.010 19.516-33.262 16.99-52.396-2.185-16.538-11.477-28.284-16.691-34.377-5.389-6.298-12.587-13.303-19.597-20.13l-148.817-144.947 35.115-204.723c1.66-9.655 3.358-19.558 4.015-27.827 0.631-7.996 1.242-22.967-6.724-37.632-9.212-16.964-25.591-28.864-44.574-32.38-16.41-3.042-30.455 2.167-37.867 5.239-7.659 3.179-16.555 7.859-25.22 12.42l-183.923 96.721-183.921-96.721c-8.668-4.561-17.561-9.242-25.222-12.42-7.408-3.072-21.458-8.282-37.868-5.239-18.981 3.516-35.36 15.415-44.574 32.38-7.966 14.665-7.354 29.636-6.721 37.632 0.655 8.269 2.355 18.172 4.013 27.827l35.113 204.723-147.741 143.902c-0.356 0.346-0.714 0.695-1.072 1.041-7.013 6.831-14.209 13.837-19.598 20.134-5.214 6.093-14.509 17.839-16.693 34.377-2.527 19.133 3.715 38.385 16.989 52.396 11.474 12.111 25.891 16.166 33.689 18.041 8.061 1.938 17.998 3.389 27.683 4.802 0.495 0.072 0.988 0.144 1.481 0.216l204.26 29.856 91.317 184.994c0.218 0.447 0.439 0.895 0.661 1.343 4.331 8.78 8.777 17.789 13.107 24.861 4.186 6.84 12.489 19.309 27.554 26.491zM347.407 637.716c-0.006-0.010-0.006-0.010 0 0v0zM361.583 648.024c0.012 0.003 0.012 0.003 0 0v0zM769.553 351.543c0 0.013 0 0.013 0 0v0zM512 778.271l-85.645-173.51c-0.164-0.332-0.35-0.718-0.56-1.152-2.033-4.209-6.243-12.924-12.918-20.11-5.635-6.065-12.393-10.979-19.9-14.47-8.893-4.136-18.482-5.453-23.113-6.090-0.478-0.066-0.903-0.124-1.269-0.177l-191.595-28.005 138.577-134.975c0.265-0.256 0.576-0.555 0.925-0.887 3.381-3.238 10.383-9.941 15.16-18.522 4.033-7.245 6.62-15.202 7.618-23.428 1.182-9.749-0.538-19.29-1.369-23.898-0.086-0.474-0.162-0.896-0.225-1.263l-32.695-190.63 171.264 90.065c0.329 0.175 0.708 0.375 1.131 0.606 4.126 2.214 12.663 6.797 22.302 8.687 8.132 1.596 16.499 1.596 24.631 0 9.634-1.89 18.176-6.473 22.298-8.687 0.427-0.23 0.806-0.431 1.131-0.606l171.264-90.065-32.695 190.63c-0.060 0.367-0.137 0.789-0.222 1.263-0.832 4.608-2.551 14.148-1.37 23.898 0.998 8.226 3.584 16.183 7.616 23.428 4.779 8.58 11.78 15.283 15.159 18.522 0.35 0.333 0.661 0.631 0.926 0.887l138.577 134.975-191.595 28.005c-0.367 0.053-0.789 0.112-1.267 0.177-4.634 0.637-14.221 1.954-23.113 6.090-7.509 3.491-14.268 8.405-19.9 14.47-6.677 7.185-10.889 15.901-12.919 20.11-0.209 0.434-0.397 0.821-0.559 1.152l-85.649 173.51z" />
<glyph unicode="&#xe90e;" glyph-name="star-08" d="M484.48 884.224c17.408 8.32 37.632 8.32 55.083 0 15.061-7.168 23.339-19.627 27.52-26.496 4.352-7.040 8.789-16.043 13.141-24.832 0.213-0.469 0.427-0.896 0.64-1.365l91.307-184.96 205.739-30.080c9.685-1.408 19.627-2.859 27.691-4.821 7.808-1.877 22.229-5.931 33.707-18.048 13.269-13.995 19.499-33.237 16.981-52.395-2.176-16.512-11.477-28.288-16.683-34.347-5.419-6.315-12.587-13.312-19.627-20.139l-148.779-144.939 35.115-204.757c1.621-9.643 3.328-19.541 4.011-27.819 0.597-7.979 1.237-22.955-6.741-37.632-9.216-16.939-25.6-28.843-44.587-32.384-16.384-3.029-30.421 2.176-37.845 5.248-7.68 3.2-16.555 7.851-25.216 12.416l-183.936 96.725-183.936-96.725c-8.661-4.565-17.536-9.216-25.216-12.416-7.381-3.072-21.461-8.277-37.845-5.248-18.987 3.541-35.371 15.445-44.587 32.384-7.979 14.677-7.339 29.653-6.741 37.632 0.683 8.277 2.389 18.176 4.053 27.819l35.115 204.757-147.755 143.872c-0.384 0.341-0.725 0.725-1.067 1.067-7.040 6.827-14.208 13.824-19.627 20.139-5.205 6.059-14.507 17.835-16.683 34.347-2.517 19.157 3.712 38.4 16.981 52.395 11.477 12.117 25.899 16.171 33.707 18.048 8.064 1.963 18.005 3.413 27.691 4.821l205.739 30.080 91.307 184.96c0.213 0.469 0.427 0.896 0.683 1.365 4.309 8.789 8.747 17.792 13.099 24.832 4.181 6.869 12.459 19.328 27.563 26.496zM512 241.707c4.139 0 8.235-0.384 12.331-1.195 9.643-1.877 18.176-6.485 22.272-8.704 0.427-0.213 0.811-0.427 1.152-0.597l171.264-90.069-32.683 190.635c-0.085 0.384-0.171 0.811-0.256 1.28-0.811 4.608-2.517 14.123-1.365 23.893 1.024 8.235 3.584 16.171 7.637 23.424 4.779 8.576 11.776 15.275 15.147 18.517 0.341 0.341 0.683 0.64 0.939 0.896l138.581 134.955-191.616 28.032c-0.341 0.043-0.768 0.085-1.28 0.171-4.608 0.64-14.208 1.963-23.083 6.101-7.509 3.456-14.293 8.405-19.925 14.464-6.656 7.168-10.88 15.872-12.885 20.096-0.213 0.427-0.427 0.811-0.597 1.152l-85.632 173.525v-536.576z" />
<glyph unicode="&#xe90f;" glyph-name="columns-01" d="M262.889 874.667h28.889c22.491 0.001 41.895 0.001 57.876-1.304 16.868-1.378 33.645-4.421 49.789-12.647 24.085-12.272 43.666-31.853 55.937-55.938 8.226-16.144 11.268-32.922 12.646-49.789 1.306-15.982 1.306-35.386 1.306-57.878v-498.22c0-22.494 0-41.899-1.306-57.877-1.378-16.87-4.42-33.647-12.646-49.792-12.271-24.085-31.852-43.665-55.937-55.936-16.145-8.226-32.922-11.268-49.79-12.646-15.982-1.306-35.384-1.306-57.876-1.306h-28.891c-22.491 0-41.894 0-57.876 1.306-16.868 1.378-33.645 4.42-49.789 12.646-24.084 12.271-43.666 31.851-55.938 55.936-8.226 16.145-11.269 32.922-12.647 49.792-1.306 15.979-1.305 35.383-1.304 57.877v498.22c-0.001 22.492-0.001 41.895 1.304 57.877 1.378 16.868 4.421 33.645 12.647 49.789 12.272 24.085 31.853 43.666 55.938 55.938 16.144 8.226 32.922 11.269 49.789 12.647 15.982 1.306 35.385 1.305 57.877 1.304zM211.961 788.312c-11.591-0.947-15.888-2.554-17.998-3.63-8.028-4.090-14.555-10.618-18.646-18.646-1.075-2.11-2.683-6.407-3.63-17.998-0.988-12.089-1.021-27.973-1.021-52.572v-494.933c0-24.602 0.033-40.482 1.021-52.574 0.947-11.588 2.554-15.885 3.629-17.997 4.091-8.030 10.618-14.554 18.646-18.645 2.11-1.075 6.407-2.684 17.998-3.631 12.089-0.986 27.973-1.020 52.572-1.020h25.6c24.6 0 40.483 0.034 52.573 1.020 11.591 0.947 15.888 2.556 17.998 3.631 8.029 4.092 14.556 10.615 18.646 18.645 1.075 2.112 2.682 6.409 3.629 17.997 0.988 12.092 1.021 27.972 1.021 52.574v494.933c0 24.599-0.033 40.483-1.021 52.572-0.947 11.591-2.554 15.888-3.629 17.998-4.090 8.028-10.618 14.555-18.646 18.646-2.109 1.075-6.407 2.683-17.998 3.63-12.089 0.988-27.973 1.021-52.573 1.021h-25.6c-24.599 0-40.483-0.033-52.572-1.021zM732.224 874.667h28.885c22.494 0.001 41.899 0.001 57.877-1.304 16.87-1.378 33.647-4.421 49.792-12.647 24.085-12.272 43.665-31.854 55.936-55.938 8.226-16.144 11.268-32.922 12.646-49.789 1.306-15.982 1.306-35.385 1.306-57.876v-498.225c0-22.49 0-41.894-1.306-57.873-1.378-16.87-4.42-33.647-12.646-49.792-12.271-24.085-31.851-43.665-55.936-55.936-16.145-8.226-32.922-11.268-49.792-12.646-15.979-1.306-35.383-1.306-57.873-1.306h-28.894c-22.49 0-41.894 0-57.873 1.306-16.87 1.378-33.647 4.42-49.792 12.646-24.085 12.271-43.665 31.851-55.936 55.936-8.226 16.145-11.268 32.922-12.646 49.792-1.306 15.979-1.306 35.383-1.306 57.877v498.22c0 22.492 0 41.896 1.306 57.878 1.378 16.868 4.42 33.645 12.646 49.789 12.271 24.085 31.851 43.666 55.936 55.938 16.145 8.226 32.922 11.269 49.792 12.647 15.979 1.306 35.383 1.305 57.877 1.304zM681.293 788.312c-11.588-0.947-15.885-2.554-17.997-3.63-8.030-4.090-14.554-10.618-18.645-18.646-1.075-2.11-2.684-6.407-3.631-17.998-0.986-12.089-1.020-27.973-1.020-52.572v-494.933c0-24.602 0.034-40.482 1.020-52.574 0.947-11.588 2.556-15.885 3.631-17.997 4.092-8.030 10.62-14.554 18.645-18.645 2.112-1.075 6.409-2.684 17.997-3.631 12.092-0.986 27.972-1.020 52.574-1.020h25.6c24.602 0 40.482 0.034 52.574 1.020 11.588 0.947 15.885 2.556 17.997 3.631 8.030 4.092 14.554 10.615 18.645 18.645 1.075 2.112 2.684 6.409 3.631 17.997 0.986 12.092 1.020 27.972 1.020 52.574v494.933c0 24.599-0.034 40.483-1.020 52.572-0.947 11.591-2.556 15.888-3.631 17.998-4.092 8.028-10.615 14.555-18.645 18.646-2.112 1.075-6.409 2.683-17.997 3.63-12.092 0.988-27.972 1.021-52.574 1.021h-25.6c-24.602 0-40.482-0.033-52.574-1.021z" />
<glyph unicode="&#xe910;" glyph-name="columns-02" d="M331.038 874.667c-34.345 0-62.691 0.001-85.783-1.885-23.983-1.96-46.029-6.165-66.736-16.716-32.113-16.363-58.222-42.471-74.584-74.584-10.551-20.707-14.756-42.754-16.716-66.736-1.886-23.091-1.886-51.437-1.885-85.783v-361.924c0-34.347-0.001-62.69 1.885-85.781 1.96-23.983 6.165-46.029 16.716-66.739 16.362-32.111 42.471-58.219 74.584-74.581 20.707-10.551 42.754-14.758 66.736-16.717 23.091-1.886 51.437-1.886 85.782-1.886h361.925c34.347 0 62.69 0 85.781 1.886 23.983 1.958 46.029 6.165 66.739 16.717 32.111 16.363 58.219 42.47 74.581 74.581 10.551 20.71 14.758 42.756 16.717 66.739 1.886 23.091 1.886 51.435 1.886 85.781v361.925c0 34.345 0 62.691-1.886 85.782-1.958 23.983-6.165 46.029-16.717 66.736-16.363 32.113-42.47 58.222-74.581 74.584-20.71 10.551-42.756 14.757-66.739 16.716-23.091 1.886-51.435 1.886-85.781 1.885h-361.924zM554.667 106.667v682.667h136.533c36.548 0 61.393-0.033 80.597-1.602 18.705-1.528 28.271-4.299 34.944-7.699 16.055-8.181 29.111-21.236 37.291-37.292 3.401-6.673 6.17-16.239 7.697-34.945 1.57-19.204 1.604-44.048 1.604-80.596v-358.4c0-36.548-0.034-61.393-1.604-80.597-1.527-18.705-4.297-28.271-7.697-34.944-8.179-16.055-21.235-29.111-37.291-37.291-6.673-3.401-16.239-6.17-34.944-7.697-19.204-1.57-44.049-1.604-80.597-1.604h-136.533zM469.333 789.333v-682.667h-136.533c-36.547 0-61.392 0.034-80.596 1.604-18.706 1.527-28.272 4.297-34.945 7.697-16.056 8.179-29.111 21.235-37.292 37.291-3.4 6.673-6.17 16.239-7.699 34.944-1.569 19.204-1.602 44.049-1.602 80.597v358.4c0 36.547 0.033 61.392 1.602 80.596 1.528 18.706 4.299 28.272 7.699 34.945 8.181 16.056 21.236 29.111 37.292 37.292 6.673 3.4 16.239 6.17 34.945 7.699 19.204 1.569 44.048 1.602 80.596 1.602h136.533z" />
<glyph unicode="&#xe911;" glyph-name="columns-03" d="M331.038 874.667h361.924c34.347 0 62.69 0.001 85.781-1.885 23.983-1.96 46.029-6.165 66.739-16.716 32.111-16.362 58.219-42.471 74.581-74.584 10.551-20.707 14.758-42.754 16.717-66.736 1.886-23.091 1.886-51.437 1.886-85.782v-361.925c0-34.347 0-62.69-1.886-85.781-1.958-23.983-6.165-46.029-16.717-66.739-16.363-32.111-42.47-58.219-74.581-74.581-20.71-10.551-42.756-14.758-66.739-16.717-23.091-1.886-51.435-1.886-85.781-1.886h-361.925c-34.345 0-62.691 0-85.782 1.886-23.983 1.958-46.029 6.165-66.736 16.717-32.113 16.363-58.222 42.47-74.584 74.581-10.551 20.71-14.757 42.756-16.716 66.739-1.886 23.091-1.886 51.435-1.885 85.781v361.924c0 34.345-0.001 62.691 1.885 85.783 1.96 23.983 6.165 46.029 16.716 66.736 16.363 32.113 42.471 58.222 74.584 74.584 20.707 10.551 42.754 14.756 66.736 16.716 23.091 1.886 51.437 1.886 85.783 1.885zM426.667 106.667h170.667v682.667h-170.667v-682.667zM341.333 789.333h-8.533c-36.547 0-61.392-0.033-80.596-1.602-18.706-1.528-28.272-4.299-34.945-7.699-16.056-8.181-29.111-21.236-37.292-37.292-3.4-6.673-6.17-16.239-7.699-34.945-1.569-19.204-1.602-44.048-1.602-80.596v-358.4c0-36.548 0.033-61.393 1.602-80.597 1.528-18.705 4.299-28.271 7.699-34.944 8.181-16.055 21.236-29.111 37.292-37.291 6.673-3.401 16.239-6.17 34.945-7.697 19.204-1.57 44.048-1.604 80.596-1.604h8.533v682.667zM682.667 789.333v-682.667h8.533c36.548 0 61.393 0.034 80.597 1.604 18.705 1.527 28.271 4.297 34.944 7.697 16.055 8.179 29.111 21.235 37.291 37.291 3.401 6.673 6.17 16.239 7.697 34.944 1.57 19.204 1.604 44.049 1.604 80.597v358.4c0 36.547-0.034 61.392-1.604 80.596-1.527 18.706-4.297 28.272-7.697 34.945-8.179 16.056-21.235 29.111-37.291 37.292-6.673 3.4-16.239 6.17-34.944 7.699-19.204 1.569-44.049 1.602-80.597 1.602h-8.533z" />
<glyph unicode="&#xe912;" glyph-name="dots-grid-02" d="M277.333 746.667c0 47.128 38.205 85.333 85.333 85.333s85.333-38.205 85.333-85.333c0-47.128-38.205-85.333-85.333-85.333s-85.333 38.205-85.333 85.333zM576 746.667c0 47.128 38.204 85.333 85.333 85.333s85.333-38.205 85.333-85.333c0-47.128-38.204-85.333-85.333-85.333s-85.333 38.205-85.333 85.333zM277.333 448c0 47.13 38.205 85.333 85.333 85.333s85.333-38.204 85.333-85.333c0-47.13-38.205-85.333-85.333-85.333s-85.333 38.204-85.333 85.333zM576 448c0 47.13 38.204 85.333 85.333 85.333s85.333-38.204 85.333-85.333c0-47.13-38.204-85.333-85.333-85.333s-85.333 38.204-85.333 85.333zM277.333 149.333c0 47.13 38.205 85.333 85.333 85.333s85.333-38.204 85.333-85.333c0-47.13-38.205-85.333-85.333-85.333s-85.333 38.204-85.333 85.333zM576 149.333c0 47.13 38.204 85.333 85.333 85.333s85.333-38.204 85.333-85.333c0-47.13-38.204-85.333-85.333-85.333s-85.333 38.204-85.333 85.333z" />
<glyph unicode="&#xe913;" glyph-name="circle" d="M512 832c-212.077 0-384-171.923-384-384 0-212.079 171.923-384 384-384 212.079 0 384 171.921 384 384 0 212.077-171.921 384-384 384zM42.667 448c0 259.206 210.128 469.333 469.333 469.333 259.204 0 469.333-210.128 469.333-469.333 0-259.204-210.129-469.333-469.333-469.333-259.206 0-469.333 210.129-469.333 469.333z" />
<glyph unicode="&#xe914;" glyph-name="list" d="M85.333 704c0 47.128 38.205 85.333 85.333 85.333s85.333-38.205 85.333-85.333c0-47.128-38.205-85.333-85.333-85.333s-85.333 38.205-85.333 85.333zM341.333 704c0 23.564 19.103 42.667 42.667 42.667h512c23.565 0 42.667-19.103 42.667-42.667s-19.102-42.667-42.667-42.667h-512c-23.564 0-42.667 19.103-42.667 42.667zM85.333 448c0 47.13 38.205 85.333 85.333 85.333s85.333-38.204 85.333-85.333c0-47.13-38.205-85.333-85.333-85.333s-85.333 38.204-85.333 85.333zM341.333 448c0 23.565 19.103 42.667 42.667 42.667h512c23.565 0 42.667-19.102 42.667-42.667s-19.102-42.667-42.667-42.667h-512c-23.564 0-42.667 19.102-42.667 42.667zM85.333 192c0 47.13 38.205 85.333 85.333 85.333s85.333-38.204 85.333-85.333c0-47.13-38.205-85.333-85.333-85.333s-85.333 38.204-85.333 85.333zM341.333 192c0 23.565 19.103 42.667 42.667 42.667h512c23.565 0 42.667-19.102 42.667-42.667s-19.102-42.667-42.667-42.667h-512c-23.564 0-42.667 19.102-42.667 42.667z" />
<glyph unicode="&#xe915;" glyph-name="intersect-circle" d="M384 832c111.578 0 206.481-71.38 241.54-170.967-177.011-7.377-319.195-149.562-326.573-326.573-99.587 35.059-170.967 129.963-170.967 241.54 0 141.385 114.615 256 256 256zM716.685 652.685c-34.799 151.588-170.539 264.649-332.685 264.649-188.513 0-341.333-152.82-341.333-341.333 0-162.146 113.061-297.886 264.649-332.685 34.799-151.586 170.539-264.649 332.685-264.649 188.514 0 341.333 152.819 341.333 341.333 0 162.146-113.062 297.886-264.649 332.685zM384 320c0 141.385 114.615 256 256 256 0-141.385-114.615-256-256-256zM398.461 234.965c177.010 7.381 319.192 149.564 326.569 326.574 99.588-35.058 170.97-129.962 170.97-241.539 0-141.385-114.615-256-256-256-111.578 0-206.481 71.381-241.539 170.965z" />
<glyph unicode="&#xe916;" glyph-name="image-user-plus" d="M288.371 917.333h223.629c23.565 0 42.667-19.103 42.667-42.667s-19.102-42.667-42.667-42.667h-221.867c-36.547 0-61.392-0.033-80.596-1.602-18.706-1.528-28.272-4.299-34.945-7.699-16.056-8.181-29.111-21.236-37.292-37.292-3.4-6.673-6.17-16.239-7.699-34.945-1.569-19.204-1.602-44.048-1.602-80.596v-435.187c35.643 26.782 79.955 42.654 128 42.654h298.667c1.673 0 3.315 0 4.941 0 34.884 0.009 58.662 0.017 79.347-4.1 84.625-16.832 150.78-82.987 167.612-167.612 2.368-11.908 3.371-24.841 3.797-40.324 1.395 0.094 2.761 0.196 4.1 0.307 18.705 1.527 28.271 4.297 34.944 7.697 16.055 8.179 29.111 21.235 37.291 37.291 3.401 6.673 6.17 16.239 7.697 34.944 1.57 19.204 1.604 44.049 1.604 80.597v221.867c0 23.565 19.102 42.667 42.667 42.667s42.667-19.102 42.667-42.667v-223.629c0-34.347 0-62.69-1.886-85.781-1.958-23.983-6.165-46.029-16.717-66.739-16.363-32.111-42.47-58.219-74.581-74.581-20.71-10.551-42.756-14.758-66.739-16.717-14.682-1.199-31.488-1.638-50.607-1.796-0.926-0.060-1.86-0.090-2.803-0.090-0.734 0-1.468 0.017-2.193 0.055-9.498-0.055-19.55-0.055-30.178-0.055h-447.258c-34.345 0-62.691 0-85.782 1.886-23.983 1.958-46.029 6.165-66.736 16.717-32.113 16.363-58.222 42.47-74.584 74.581-3.113 6.11-5.674 12.339-7.788 18.697-2.608 5.15-4.181 10.837-4.532 16.725-2.173 10.082-3.513 20.501-4.397 31.317-1.886 23.091-1.886 51.435-1.885 85.781v447.258c-0.001 34.345-0.001 62.691 1.885 85.783 1.96 23.983 6.165 46.029 16.716 66.736 16.363 32.113 42.471 58.222 74.584 74.584 20.707 10.551 42.754 14.756 66.736 16.716 23.091 1.886 51.437 1.886 85.783 1.885zM725.022 64c-0.311 11.78-0.93 18.854-2.146 24.973-10.103 50.773-49.796 90.466-100.57 100.57-11.328 2.253-25.946 2.458-67.639 2.458h-298.667c-53.967 0-100.218-33.429-119.018-80.768 0.106-0.218 0.212-0.431 0.319-0.64 8.181-16.055 21.236-29.111 37.292-37.291 6.673-3.401 16.239-6.17 34.945-7.697 19.204-1.57 44.048-1.604 80.596-1.604h434.889zM810.667 917.333c23.565 0 42.667-19.103 42.667-42.667v-85.333h85.333c23.565 0 42.667-19.103 42.667-42.667s-19.102-42.667-42.667-42.667h-85.333v-85.333c0-23.564-19.102-42.667-42.667-42.667s-42.667 19.102-42.667 42.667v85.333h-85.333c-23.565 0-42.667 19.102-42.667 42.667s19.102 42.667 42.667 42.667h85.333v85.333c0 23.564 19.102 42.667 42.667 42.667zM426.667 682.667c-70.692 0-128-57.308-128-128 0-70.694 57.308-128 128-128 70.694 0 128 57.306 128 128 0 70.692-57.306 128-128 128zM213.333 554.667c0 117.821 95.513 213.333 213.333 213.333s213.333-95.513 213.333-213.333c0-117.82-95.514-213.333-213.333-213.333s-213.333 95.514-213.333 213.333z" />
<glyph unicode="&#xe917;" glyph-name="layers-three-01" d="M503.578 831.125v0zM512 826.961l331.26-165.63-331.26-165.629-331.262 165.629 331.262 165.63zM503.578 491.537c-0.009-0.004-0.009-0.004 0 0v0zM520.418 491.537c0.013-0.004 0.013-0.004 0.004 0h-0.004zM520.418 831.124v0zM500.198 913.715c7.799 1.463 15.804 1.463 23.603 0 9.233-1.733 17.472-5.937 21.453-7.968 0.41-0.209 0.777-0.396 1.092-0.553l411.401-205.701c14.455-7.227 23.586-22.001 23.586-38.162s-9.131-30.935-23.586-38.162l-411.401-205.701c-0.316-0.158-0.683-0.346-1.092-0.555-3.981-2.031-12.22-6.234-21.453-7.966-7.799-1.463-15.804-1.463-23.603 0-9.237 1.732-17.472 5.935-21.453 7.966-0.414 0.209-0.777 0.397-1.092 0.555l-411.402 205.701c-14.455 7.227-23.585 22.001-23.585 38.162s9.131 30.935 23.585 38.162l411.402 205.701c0.316 0.158 0.683 0.344 1.092 0.553 3.981 2.031 12.215 6.235 21.453 7.968zM47.17 467.076c10.538 21.077 36.167 29.623 57.243 19.085l407.587-203.793 407.586 203.793c21.073 10.539 46.703 1.993 57.242-19.085 10.539-21.073 1.997-46.703-19.081-57.242l-411.401-205.7c-0.316-0.158-0.683-0.346-1.092-0.555-3.981-2.031-12.22-6.234-21.453-7.966-7.799-1.463-15.804-1.463-23.603 0-9.237 1.732-17.472 5.935-21.453 7.966-0.414 0.209-0.777 0.397-1.092 0.555l-411.402 205.7c-21.076 10.539-29.619 36.169-19.081 57.242zM503.578 278.204c-0.009-0.004-0.009-0.004 0 0v0zM520.418 278.204c0.013-0.004 0.013-0.004 0.004 0h-0.004zM47.17 253.743c10.538 21.077 36.167 29.623 57.243 19.085l407.587-203.793 407.586 203.793c21.073 10.539 46.703 1.993 57.242-19.085 10.539-21.073 1.997-46.703-19.081-57.242l-411.401-205.7c-0.316-0.158-0.683-0.346-1.092-0.555-3.981-2.031-12.22-6.234-21.453-7.966-7.799-1.463-15.804-1.463-23.603 0-9.237 1.732-17.472 5.935-21.453 7.966-0.41 0.209-0.777 0.397-1.092 0.555l-411.402 205.7c-21.076 10.539-29.619 36.169-19.081 57.242z" />
<glyph unicode="&#xe918;" glyph-name="diamond-04" d="M732.032 874.667c13.935 0 27.136-6.735 35.383-18.335l205.333-284.382c12.467-17.213 11.187-40.972-2.748-56.878l-425.335-478.959c-8.252-9.353-20.169-14.78-32.636-14.78-12.463 0-24.196 5.427-32.631 14.78l-425.335 478.959c-14.117 15.906-15.217 39.665-2.75 56.878l205.335 284.382c8.25 11.412 21.45 18.335 35.383 18.335h440.001zM834.202 490.667h-644.341l322.169-362.79 322.172 362.79zM864.572 576h-248.947l121.856 176.018 127.091-176.018zM408.82 576l-121.449 177.113-127.882-177.113h249.33zM659.529 789.333l-147.465-213.004-146.061 213.004h293.525z" />
<glyph unicode="&#xe919;" glyph-name="globe-01" d="M512 917.333c259.204 0 469.334-210.128 469.334-469.333 0-259.204-210.13-469.334-469.334-469.334-259.206 0-469.333 210.13-469.333 469.334 0 259.206 210.128 469.333 469.333 469.333zM130.343 490.666h170.46c9.567 117.898 49.023 231.066 114.159 328.968-151.761-39.515-266.995-169.534-284.62-328.968zM130.343 405.334c17.625-159.438 132.859-289.453 284.62-328.968-65.137 97.902-104.592 211.070-114.159 328.968h-170.46zM609.037 76.366c151.762 39.516 266.994 169.531 284.621 328.968h-170.461c-9.567-117.898-49.026-231.067-114.159-328.968zM893.658 490.666c-17.627 159.435-132.859 289.453-284.621 328.968 65.134-97.903 104.592-211.070 114.159-328.968h170.461zM512 808.499c-71.242-91.781-114.826-202.070-125.544-317.833h251.087c-10.72 115.763-54.302 226.052-125.544 317.833zM512 87.501c71.242 91.779 114.823 202.070 125.544 317.833h-251.087c10.717-115.763 54.302-226.055 125.544-317.833z" />
<glyph unicode="&#xe91a;" glyph-name="globe-02" d="M512-21.333c259.204 0 469.333 210.128 469.333 469.333 0 259.207-210.128 469.333-469.333 469.333s-469.333-210.127-469.333-469.333c0-259.204 210.129-469.333 469.333-469.333zM609.037 819.634c108.412-28.228 198.181-102.639 247.049-200.967h-155.464c-19.593 71.303-50.475 139.175-91.584 200.967zM512 808.499c44.36-57.151 77.995-121.476 99.651-189.832h-199.305c21.658 68.356 55.294 132.681 99.654 189.832zM639.993 448c-0.642-28.745-3.307-57.253-7.925-85.333h-240.138c-4.613 28.079-7.278 56.587-7.92 85.333 0.642 28.745 3.307 57.253 7.92 85.333h240.138c4.618-28.079 7.283-56.587 7.925-85.333zM611.651 277.333c-21.656-68.356-55.291-132.679-99.651-189.832-44.36 57.153-77.995 121.476-99.654 189.832h199.305zM305.595 362.667h-168.080c-6.228 27.442-9.516 56.004-9.516 85.333s3.288 57.89 9.516 85.333h168.080c-4.003-27.851-6.328-56.051-6.918-84.446-0.015-0.593-0.015-1.181 0-1.774 0.59-28.395 2.915-56.594 6.918-84.446zM167.916 277.333h155.463c19.593-71.303 50.475-139.173 91.584-200.969-108.412 28.229-198.182 102.64-247.047 200.969zM700.622 277.333h155.464c-48.868-98.328-138.637-172.74-247.049-200.969 41.109 61.795 71.991 129.666 91.584 200.969zM886.485 362.667h-168.081c4.003 27.851 6.328 56.051 6.921 84.446 0.012 0.593 0.012 1.181 0 1.774-0.593 28.395-2.918 56.594-6.921 84.446h168.081c6.225-27.442 9.515-56.004 9.515-85.333s-3.29-57.89-9.515-85.333zM414.963 819.634c-41.109-61.791-71.991-129.664-91.584-200.967h-155.463c48.865 98.327 138.635 172.739 247.047 200.967z" />
<glyph unicode="&#xe91b;" glyph-name="globe-03" d="M981.333 448c0 259.185-210.094 469.299-469.269 469.333h-0.162c-259.16-0.052-469.236-210.161-469.236-469.333 0-259.204 210.127-469.333 469.333-469.333 259.204 0 469.333 210.128 469.333 469.333zM146.747 566.853c37.876 116.479 129.922 208.524 246.401 246.4-22.687-34.154-40.198-71.829-53.586-110.698-7.17-20.818-13.231-42.18-18.31-63.806-21.626-5.078-42.988-11.139-63.806-18.31-38.869-13.388-76.544-30.899-110.699-53.586zM146.747 329.147c34.154-22.685 71.83-40.196 110.699-53.584 20.818-7.173 42.18-13.231 63.806-18.31 5.078-21.626 11.139-42.991 18.31-63.811 13.388-38.865 30.899-76.54 53.586-110.695-116.479 37.876-208.524 129.921-246.401 246.399zM413.799 241.243c33.020-3.871 65.771-5.911 97.314-6.568 0.593-0.012 1.181-0.012 1.774 0 31.543 0.657 64.294 2.697 97.314 6.568-2.031-6.747-4.177-13.42-6.448-20.007-20.62-59.875-50.524-110.477-91.753-146.322-41.229 35.845-71.134 86.447-91.756 146.322-2.271 6.587-4.417 13.261-6.445 20.007zM629.973 330.027c-39.177-6.068-79.125-9.174-117.973-10.017-38.848 0.843-78.797 3.949-117.973 10.017-6.068 39.177-9.174 79.125-10.017 117.973 0.843 38.848 3.949 78.797 10.017 117.973 39.177 6.068 79.125 9.174 117.973 10.017 38.848-0.843 78.797-3.949 117.973-10.017 6.068-39.177 9.174-79.125 10.017-117.973-0.843-38.848-3.949-78.797-10.017-117.973zM702.746 257.254c21.631 5.078 42.991 11.137 63.811 18.31 38.865 13.388 76.54 30.899 110.695 53.584-37.876-116.479-129.921-208.524-246.399-246.399 22.685 34.155 40.196 71.829 53.584 110.697 7.173 20.818 13.231 42.182 18.31 63.809zM877.252 566.853c-34.155 22.687-71.829 40.198-110.695 53.586-20.821 7.17-42.18 13.231-63.811 18.31-5.078 21.626-11.137 42.988-18.31 63.806-13.388 38.869-30.899 76.544-53.584 110.698 116.479-37.876 208.524-129.921 246.399-246.4zM718.757 546.201c6.747-2.028 13.42-4.174 20.007-6.445 59.875-20.622 110.477-50.526 146.322-91.756-35.845-41.229-86.447-71.134-146.322-91.753-6.587-2.271-13.261-4.417-20.007-6.448 3.871 33.020 5.911 65.771 6.568 97.314 0.012 0.593 0.012 1.181 0 1.774-0.657 31.543-2.697 64.294-6.568 97.314zM610.201 654.757c-33.020 3.868-65.771 5.909-97.314 6.568-0.593 0.012-1.181 0.012-1.774 0-31.543-0.659-64.294-2.7-97.314-6.568 2.028 6.749 4.174 13.422 6.445 20.007 20.622 59.875 50.526 110.478 91.756 146.32 41.229-35.842 71.134-86.445 91.753-146.318 2.271-6.587 4.417-13.261 6.448-20.010zM305.243 546.201c-3.868-33.020-5.909-65.771-6.568-97.314-0.012-0.593-0.012-1.181 0-1.774 0.659-31.543 2.7-64.294 6.568-97.314-6.749 2.031-13.422 4.177-20.007 6.448-59.875 20.62-110.478 50.524-146.32 91.753 35.842 41.229 86.445 71.134 146.32 91.756 6.585 2.271 13.258 4.417 20.007 6.445z" />
<glyph unicode="&#xecde;" glyph-name="zap1" d="M571.657 913.805c17.374-7.542 27.695-25.636 25.348-44.431l-36.672-293.375h264.316c10.283 0.002 20.698 0.004 29.21-0.767 8.047-0.728 23.454-2.656 36.821-13.455 15.296-12.363 24.060-31.073 23.765-50.743-0.26-17.182-8.644-30.251-13.235-36.902-4.855-7.027-11.524-15.027-18.108-22.925l-380.992-457.19c-12.126-14.549-32.393-19.366-49.766-11.823s-27.697 25.634-25.348 44.429l36.672 293.376h-264.32c-10.282 0-20.697-0.004-29.206 0.768-8.047 0.725-23.457 2.654-36.821 13.453-15.299 12.365-24.064 31.078-23.767 50.743 0.259 17.182 8.643 30.251 13.235 36.902 4.856 7.027 11.525 15.027 18.109 22.929 0.326 0.388 0.652 0.781 0.977 1.169l380.014 456.017c12.126 14.551 32.393 19.366 49.766 11.824zM219.095 405.333h292.905c12.237 0 23.885-5.257 31.987-14.43 8.098-9.173 11.866-21.385 10.351-33.527l-24.619-196.928 275.183 330.219h-292.902c-12.237 0-23.889 5.257-31.987 14.43s-11.87 21.385-10.351 33.529l24.614 196.928-275.182-330.221z" />
<glyph unicode="&#xecdf;" glyph-name="zap-square1" d="M331.038 874.667h361.924c34.347 0 62.69 0.001 85.781-1.885 23.983-1.96 46.029-6.165 66.739-16.716 32.111-16.363 58.219-42.471 74.581-74.584 10.551-20.707 14.758-42.754 16.717-66.736 1.886-23.091 1.886-51.437 1.886-85.782v-361.925c0-34.347 0-62.69-1.886-85.781-1.958-23.983-6.165-46.029-16.717-66.739-16.363-32.111-42.47-58.219-74.581-74.581-20.71-10.551-42.756-14.758-66.739-16.717-23.091-1.886-51.435-1.886-85.781-1.886h-361.925c-34.345 0-62.691 0-85.782 1.886-23.983 1.958-46.029 6.165-66.736 16.717-32.113 16.363-58.222 42.47-74.584 74.581-10.551 20.71-14.756 42.756-16.716 66.739-1.886 23.091-1.886 51.435-1.885 85.781v361.924c0 34.345-0.001 62.691 1.885 85.783 1.96 23.983 6.165 46.029 16.716 66.736 16.363 32.113 42.471 58.222 74.584 74.584 20.707 10.551 42.754 14.756 66.736 16.716 23.091 1.886 51.437 1.886 85.783 1.885zM252.204 787.731c-18.706-1.528-28.272-4.299-34.945-7.699-16.056-8.181-29.111-21.236-37.292-37.292-3.4-6.673-6.17-16.239-7.699-34.945-1.569-19.204-1.602-44.048-1.602-80.596v-358.4c0-36.548 0.033-61.393 1.602-80.597 1.528-18.705 4.299-28.271 7.699-34.944 8.181-16.055 21.236-29.111 37.292-37.291 6.673-3.401 16.239-6.17 34.945-7.697 19.204-1.57 44.048-1.604 80.596-1.604h358.4c36.548 0 61.393 0.034 80.597 1.604 18.705 1.527 28.271 4.297 34.944 7.697 16.055 8.179 29.111 21.235 37.291 37.291 3.401 6.673 6.17 16.239 7.697 34.944 1.57 19.204 1.604 44.049 1.604 80.597v358.4c0 36.547-0.034 61.392-1.604 80.596-1.527 18.706-4.297 28.272-7.697 34.945-8.179 16.056-21.235 29.111-37.291 37.292-6.673 3.4-16.239 6.17-34.944 7.699-19.204 1.569-44.049 1.602-80.597 1.602h-358.4c-36.547 0-61.392-0.033-80.596-1.602zM525.274 744.549c17.536-5.74 29.393-22.1 29.393-40.549v-149.333h124.642c0.491 0 0.986 0 1.481 0 9.553 0.002 19.422 0.004 27.554-0.739 7.953-0.726 22.541-2.651 35.516-12.744 15.087-11.734 24.141-29.598 24.683-48.704 0.465-16.435-6.609-29.333-10.726-36.177-4.211-7.002-10.048-14.955-15.701-22.66-0.29-0.397-0.585-0.794-0.875-1.195l-194.833-265.681c-10.91-14.878-30.148-21.056-47.68-15.317-17.536 5.743-29.393 22.101-29.393 40.55v149.333h-124.641c-0.492 0-0.986 0-1.481 0-9.555-0.004-19.421-0.004-27.556 0.738-7.953 0.725-22.54 2.65-35.516 12.745-15.087 11.733-24.14 29.598-24.681 48.704-0.465 16.435 6.609 29.333 10.726 36.177 4.212 7.002 10.048 14.955 15.7 22.66 0.293 0.397 0.585 0.794 0.876 1.195l194.833 265.679c10.91 14.878 30.148 21.058 47.68 15.318zM361.532 426.667h150.468c23.565 0 42.667-19.102 42.667-42.667v-61.67l107.802 147.004h-150.468c-23.565 0-42.667 19.102-42.667 42.667v61.669l-107.801-147.002z" />
<glyph unicode="&#xece0;" glyph-name="zap-off1" d="M571.657 913.805c17.374-7.542 27.695-25.636 25.344-44.431l-25.587-204.702c-2.923-23.382-24.247-39.968-47.629-37.045s-39.966 24.247-37.043 47.629l7.535 60.297-10.394-12.475c-15.087-18.103-41.993-20.548-60.093-5.463-18.103 15.086-20.548 41.99-5.463 60.092l103.559 124.273c12.126 14.551 32.393 19.366 49.771 11.824zM97.83 862.17c16.663 16.663 43.677 16.663 60.34 0l213.026-213.026c0.231-0.226 0.459-0.454 0.684-0.684l340.653-340.65c0.226-0.226 0.457-0.452 0.678-0.683l212.958-212.958c16.661-16.661 16.661-43.678 0-60.339s-43.678-16.661-60.339 0l-180.297 180.297-183.424-220.109c-12.126-14.549-32.393-19.366-49.766-11.823s-27.697 25.634-25.348 44.429l36.672 293.376h-264.319c-10.282 0-20.697-0.004-29.206 0.768-8.047 0.725-23.457 2.654-36.821 13.453-15.299 12.365-24.064 31.078-23.767 50.743 0.259 17.182 8.643 30.251 13.236 36.902 4.855 7.027 11.525 15.027 18.109 22.929 0.326 0.388 0.652 0.781 0.977 1.169l141.735 170.084-185.782 185.782c-16.662 16.662-16.662 43.677 0 60.34zM344.201 555.46l-125.105-150.127h275.232l-150.127 150.127zM552.998 346.662l-23.279-186.214 95.228 114.266-71.949 71.949zM804.907 490.667l-46.208-55.445c-15.083-18.103-12.638-45.009 5.466-60.092 18.099-15.087 45.005-12.642 60.092 5.461l58.842 70.613c6.588 7.902 13.257 15.902 18.112 22.929 4.591 6.652 12.975 19.721 13.235 36.902 0.299 19.669-8.469 38.38-23.765 50.743-13.363 10.799-28.774 12.727-36.821 13.455-8.508 0.771-18.923 0.768-29.205 0.767h-156.919c-23.561 0-42.667-19.102-42.667-42.667s19.106-42.667 42.667-42.667h137.173z" />
<glyph unicode="&#xece1;" glyph-name="zap-fast1" d="M741.018 871.679c18.223-7.203 29.197-25.894 26.607-45.319l-36.224-271.694h163.742c9.421 0.002 19.183 0.004 27.247-0.733 7.932-0.725 22.362-2.647 35.26-12.602 15.044-11.611 24.149-29.305 24.853-48.291 0.602-16.286-6.221-29.146-10.24-36.019-4.087-6.989-9.762-14.933-15.241-22.596l-282.304-395.226c-11.388-15.945-32.175-22.080-50.402-14.878-18.223 7.202-29.197 25.894-26.607 45.316l36.224 271.697h-162.27c-0.491 0-0.981 0-1.472 0-9.421-0.004-19.183-0.004-27.247 0.734-7.932 0.721-22.36 2.645-35.259 12.599-15.043 11.61-24.148 29.303-24.853 48.294-0.604 16.282 6.22 29.141 10.24 36.019 4.087 6.989 9.763 14.929 15.238 22.592 0.286 0.401 0.571 0.802 0.855 1.199l281.449 394.028c11.388 15.946 32.175 22.083 50.402 14.88zM488.243 426.667h194.423c12.301 0 24-5.308 32.102-14.562s11.814-21.555 10.189-33.745l-20.002-150.016 172.134 240.99h-194.423c-12.301 0-24 5.308-32.102 14.562-8.102 9.25-11.814 21.551-10.189 33.741l20.002 150.016-172.134-240.986zM128 682.666c0 23.564 19.103 42.667 42.667 42.667h213.333c23.564 0 42.667-19.103 42.667-42.667s-19.103-42.667-42.667-42.667h-213.333c-23.564 0-42.667 19.102-42.667 42.667zM42.667 448c0 23.565 19.103 42.667 42.667 42.667h192c23.564 0 42.667-19.102 42.667-42.667s-19.103-42.667-42.667-42.667h-192c-23.564 0-42.667 19.102-42.667 42.667zM106.667 213.333c0 23.565 19.103 42.667 42.667 42.667h234.667c23.564 0 42.667-19.102 42.667-42.667s-19.103-42.667-42.667-42.667h-234.667c-23.564 0-42.667 19.102-42.667 42.667z" />
<glyph unicode="&#xece2;" glyph-name="zap-circle1" d="M512 832c-212.077 0-384-171.923-384-384 0-212.079 171.923-384 384-384 212.079 0 384 171.921 384 384 0 212.077-171.921 384-384 384zM42.667 448c0 259.206 210.128 469.333 469.333 469.333 259.204 0 469.333-210.128 469.333-469.333 0-259.204-210.129-469.333-469.333-469.333-259.206 0-469.333 210.129-469.333 469.333zM524.655 766.080c17.847-5.544 30.012-22.057 30.012-40.747v-170.667h128.572c9.225 0.002 18.842 0.004 26.803-0.724 7.902-0.723 22.11-2.64 34.901-12.401 14.976-11.43 24.154-28.88 25.088-47.7 0.798-16.068-5.67-28.864-9.549-35.78-3.913-6.976-9.361-14.899-14.592-22.502l-198.733-289.062c-10.586-15.403-29.965-22.118-47.812-16.576s-30.012 22.059-30.012 40.747v170.667h-127.112c-0.485 0-0.971 0-1.458 0-9.228-0.004-18.844-0.004-26.806 0.725-7.9 0.721-22.11 2.637-34.899 12.399-14.977 11.43-24.157 28.881-25.091 47.701-0.798 16.068 5.673 28.864 9.553 35.78 3.91 6.976 9.359 14.899 14.589 22.502 0.276 0.401 0.552 0.802 0.826 1.203l197.907 287.86c10.586 15.401 29.965 22.118 47.812 16.575zM358.444 426.667h153.556c23.565 0 42.667-19.102 42.667-42.667v-75.959l110.891 161.293h-153.557c-23.565 0-42.667 19.102-42.667 42.667v75.96l-110.889-161.294z" />
<glyph unicode="&#xece3;" glyph-name="x1" d="M268.497 691.503c16.663 16.662 43.677 16.662 60.34 0l183.163-183.164 183.164 183.164c16.661 16.662 43.678 16.662 60.339 0s16.661-43.677 0-60.34l-183.164-183.163 183.164-183.164c16.661-16.661 16.661-43.678 0-60.339s-43.678-16.661-60.339 0l-183.164 183.164-183.163-183.164c-16.663-16.661-43.677-16.661-60.34 0s-16.662 43.678 0 60.339l183.164 183.164-183.164 183.163c-16.662 16.663-16.662 43.677 0 60.34z" />
<glyph unicode="&#xece4;" glyph-name="x-square1" d="M331.038 874.667h361.924c34.347 0 62.69 0.001 85.781-1.885 23.983-1.96 46.029-6.165 66.739-16.716 32.111-16.363 58.219-42.471 74.581-74.584 10.551-20.707 14.758-42.754 16.717-66.736 1.886-23.091 1.886-51.437 1.886-85.782v-361.925c0-34.347 0-62.69-1.886-85.781-1.958-23.983-6.165-46.029-16.717-66.739-16.363-32.111-42.47-58.219-74.581-74.581-20.71-10.551-42.756-14.758-66.739-16.717-23.091-1.886-51.435-1.886-85.781-1.886h-361.925c-34.345 0-62.691 0-85.782 1.886-23.983 1.958-46.029 6.165-66.736 16.717-32.113 16.363-58.222 42.47-74.584 74.581-10.551 20.71-14.756 42.756-16.716 66.739-1.886 23.091-1.886 51.435-1.885 85.781v361.924c0 34.345-0.001 62.691 1.885 85.783 1.96 23.983 6.165 46.029 16.716 66.736 16.363 32.113 42.471 58.222 74.584 74.584 20.707 10.551 42.754 14.756 66.736 16.716 23.091 1.886 51.437 1.886 85.783 1.885zM252.204 787.731c-18.706-1.528-28.272-4.299-34.945-7.699-16.056-8.181-29.111-21.236-37.292-37.292-3.4-6.673-6.17-16.239-7.699-34.945-1.569-19.204-1.602-44.048-1.602-80.596v-358.4c0-36.548 0.033-61.393 1.602-80.597 1.528-18.705 4.299-28.271 7.699-34.944 8.181-16.055 21.236-29.111 37.292-37.291 6.673-3.401 16.239-6.17 34.945-7.697 19.204-1.57 44.048-1.604 80.596-1.604h358.4c36.548 0 61.393 0.034 80.597 1.604 18.705 1.527 28.271 4.297 34.944 7.697 16.055 8.179 29.111 21.235 37.291 37.291 3.401 6.673 6.17 16.239 7.697 34.944 1.57 19.204 1.604 44.049 1.604 80.597v358.4c0 36.547-0.034 61.392-1.604 80.596-1.527 18.706-4.297 28.272-7.697 34.945-8.179 16.056-21.235 29.111-37.291 37.292-6.673 3.4-16.239 6.17-34.944 7.699-19.204 1.569-44.049 1.602-80.597 1.602h-358.4c-36.547 0-61.392-0.033-80.596-1.602zM353.83 606.17c16.663 16.662 43.677 16.662 60.34 0l97.83-97.831 97.83 97.831c16.661 16.662 43.678 16.662 60.339 0s16.661-43.677 0-60.34l-97.83-97.83 97.83-97.83c16.661-16.661 16.661-43.678 0-60.339s-43.678-16.661-60.339 0l-97.83 97.83-97.83-97.83c-16.663-16.661-43.677-16.661-60.34 0s-16.662 43.678 0 60.339l97.831 97.83-97.831 97.83c-16.662 16.663-16.662 43.677 0 60.34z" />
<glyph unicode="&#xece5;" glyph-name="x-close1" d="M225.83 734.17c16.663 16.662 43.677 16.662 60.34 0l225.83-225.831 225.83 225.831c16.661 16.662 43.678 16.662 60.339 0s16.661-43.677 0-60.34l-225.83-225.83 225.83-225.83c16.661-16.661 16.661-43.678 0-60.339s-43.678-16.661-60.339 0l-225.83 225.83-225.83-225.83c-16.663-16.661-43.677-16.661-60.34 0s-16.662 43.678 0 60.339l225.831 225.83-225.831 225.83c-16.662 16.663-16.662 43.677 0 60.34z" />
<glyph unicode="&#xece6;" glyph-name="x-circle1" d="M512 832c-212.077 0-384-171.923-384-384 0-212.079 171.923-384 384-384 212.079 0 384 171.921 384 384 0 212.077-171.921 384-384 384zM42.667 448c0 259.206 210.128 469.333 469.333 469.333 259.204 0 469.333-210.128 469.333-469.333 0-259.204-210.129-469.333-469.333-469.333-259.206 0-469.333 210.129-469.333 469.333zM353.83 606.17c16.663 16.662 43.677 16.662 60.34 0l97.83-97.831 97.83 97.831c16.661 16.662 43.678 16.662 60.339 0s16.661-43.677 0-60.34l-97.83-97.83 97.83-97.83c16.661-16.661 16.661-43.678 0-60.339s-43.678-16.661-60.339 0l-97.83 97.83-97.83-97.83c-16.663-16.661-43.677-16.661-60.34 0s-16.662 43.678 0 60.339l97.831 97.83-97.831 97.83c-16.662 16.663-16.662 43.677 0 60.34z" />
<glyph unicode="&#xece7;" glyph-name="upload-cloud-021" d="M405.333 789.333c-153.167 0-277.333-124.166-277.333-277.333 0-76.412 30.847-145.536 80.868-195.742 16.632-16.695 16.582-43.708-0.111-60.339s-43.708-16.585-60.34 0.111c-65.306 65.545-105.751 156.075-105.751 255.97 0 200.295 162.371 362.667 362.667 362.667 129.911 0 243.814-68.327 307.819-170.815 148.928-4.828 268.181-127.080 268.181-277.185 0-86.135-39.322-163.127-100.83-213.926-18.172-15.006-45.065-12.442-60.066 5.73-15.006 18.167-12.442 45.060 5.726 60.066 42.726 35.285 69.837 88.525 69.837 148.13 0 106.039-85.961 192-192 192-24.051 0-46.942 12.53-59.537 33.901-48.286 81.94-137.331 136.765-239.13 136.765zM481.83 478.17c16.661 16.661 43.678 16.661 60.339 0l170.667-170.667c16.661-16.661 16.661-43.678 0-60.339s-43.678-16.661-60.339 0l-97.83 97.83v-280.994c0-23.565-19.102-42.667-42.667-42.667s-42.667 19.102-42.667 42.667v280.994l-97.83-97.83c-16.663-16.661-43.677-16.661-60.34 0s-16.662 43.678 0 60.339l170.667 170.667z" />
<glyph unicode="&#xece8;" glyph-name="upload-cloud-011" d="M223.967 655.231c34.729 126.501 150.493 219.436 288.033 219.436s253.303-92.935 288.034-219.436c103.906-24.174 181.299-117.311 181.299-228.564 0-81.404-41.485-153.101-104.265-195.123-19.584-13.107-46.084-7.859-59.191 11.721-13.107 19.584-7.859 46.084 11.721 59.191 40.128 26.859 66.402 72.478 66.402 124.211 0 77.747-59.447 141.66-135.339 148.689-19.332 1.79-35.017 16.406-38.165 35.564-16.636 101.201-104.589 178.415-210.496 178.415-105.905 0-193.859-77.213-210.496-178.415-3.15-19.157-18.835-33.773-38.167-35.564-75.89-7.028-135.337-70.941-135.337-148.689 0-51.733 26.272-97.353 66.4-124.211 19.582-13.107 24.83-39.607 11.723-59.191-13.108-19.58-39.608-24.828-59.19-11.721-62.782 42.022-104.266 113.719-104.266 195.123 0 111.253 77.393 204.39 181.3 228.564zM469.333 344.994l-97.83-97.83c-16.663-16.661-43.677-16.661-60.34 0s-16.662 43.678 0 60.339l170.667 170.667c16.661 16.661 43.678 16.661 60.339 0l170.667-170.667c16.661-16.661 16.661-43.678 0-60.339s-43.678-16.661-60.339 0l-97.83 97.83v-280.994c0-23.565-19.102-42.667-42.667-42.667s-42.667 19.102-42.667 42.667v280.994z" />
<glyph unicode="&#xece9;" glyph-name="upload-041" d="M512 832c-212.077 0-384-171.923-384-384 0-142.080 77.142-266.193 192.031-332.655 20.397-11.797 27.367-37.897 15.568-58.295s-37.9-27.366-58.297-15.569c-140.173 81.088-234.636 232.747-234.636 406.519 0 259.206 210.128 469.333 469.333 469.333 259.204 0 469.333-210.128 469.333-469.333 0-181.069-102.549-338.121-252.54-416.363-0.627-0.324-1.259-0.657-1.89-0.986-13.79-7.202-29.107-15.206-46.562-19.755-19.627-5.12-39.433-5.436-63.253-2.206-21.867 2.961-45.683 14.093-64.247 25.348-18.564 11.251-39.45 27.221-52.19 45.235-31.398 44.407-31.364 86.886-31.322 140.689 0.004 2.039 0.004 4.096 0.004 6.17v289.527l-97.83-97.83c-16.663-16.661-43.677-16.661-60.34 0s-16.662 43.678 0 60.339l170.667 170.667c8 8.001 18.854 12.497 30.17 12.497s22.17-4.495 30.17-12.497l170.667-170.667c16.661-16.661 16.661-43.678 0-60.339s-43.678-16.661-60.339 0l-97.83 97.83v-289.527c0-61.922 1.271-77.244 15.659-97.587 2.867-4.058 12.25-12.745 26.752-21.534 14.502-8.794 26.543-13.094 31.467-13.76 16.491-2.236 24.499-1.289 30.263 0.213 7.13 1.86 14.174 5.303 30.519 13.833 122.914 64.115 206.673 192.661 206.673 340.702 0 212.077-171.921 384-384 384z" />
<glyph unicode="&#xecea;" glyph-name="upload-031" d="M512 832c-212.077 0-384-171.923-384-384 0-212.079 171.923-384 384-384 212.079 0 384 171.921 384 384 0 212.077-171.921 384-384 384zM42.667 448c0 259.206 210.128 469.333 469.333 469.333 259.204 0 469.333-210.128 469.333-469.333 0-259.204-210.129-469.333-469.333-469.333-259.206 0-469.333 210.129-469.333 469.333zM311.163 478.17l170.667 170.667c16.661 16.662 43.678 16.662 60.339 0l170.667-170.667c16.661-16.661 16.661-43.678 0-60.339s-43.678-16.661-60.339 0l-97.83 97.83v-238.327c0-23.565-19.102-42.667-42.667-42.667s-42.667 19.102-42.667 42.667v238.327l-97.83-97.83c-16.663-16.661-43.677-16.661-60.34 0s-16.662 43.678 0 60.339z" />
<glyph unicode="&#xeceb;" glyph-name="upload-021" d="M85.333 832c0 23.564 19.103 42.667 42.667 42.667h768c23.565 0 42.667-19.103 42.667-42.667s-19.102-42.667-42.667-42.667h-768c-23.564 0-42.667 19.103-42.667 42.667zM512 704c11.315 0 22.17-4.495 30.17-12.497l256-256c16.661-16.661 16.661-43.678 0-60.339s-43.678-16.661-60.339 0l-183.164 183.163v-494.327c0-23.565-19.102-42.667-42.667-42.667s-42.667 19.102-42.667 42.667v494.327l-183.163-183.163c-16.663-16.661-43.677-16.661-60.34 0s-16.662 43.678 0 60.339l256 256c8 8.001 18.854 12.497 30.17 12.497z" />
<glyph unicode="&#xecec;" glyph-name="upload-011" d="M481.83 862.17c16.661 16.662 43.678 16.662 60.339 0l213.333-213.333c16.661-16.663 16.661-43.677 0-60.34s-43.678-16.662-60.339 0l-140.497 140.497v-408.994c0-23.565-19.102-42.667-42.667-42.667s-42.667 19.102-42.667 42.667v408.994l-140.497-140.497c-16.663-16.662-43.677-16.662-60.34 0s-16.662 43.677 0 60.34l213.334 213.333zM128 362.667c23.564 0 42.667-19.102 42.667-42.667v-51.2c0-36.548 0.033-61.393 1.602-80.597 1.528-18.705 4.299-28.271 7.699-34.944 8.181-16.055 21.236-29.111 37.292-37.291 6.673-3.401 16.239-6.17 34.945-7.697 19.204-1.57 44.048-1.604 80.596-1.604h358.4c36.548 0 61.393 0.034 80.597 1.604 18.705 1.527 28.271 4.297 34.944 7.697 16.055 8.179 29.111 21.235 37.291 37.291 3.401 6.673 6.17 16.239 7.697 34.944 1.57 19.204 1.604 44.049 1.604 80.597v51.2c0 23.565 19.102 42.667 42.667 42.667s42.667-19.102 42.667-42.667v-52.962c0-34.347 0-62.69-1.886-85.781-1.958-23.983-6.165-46.029-16.717-66.739-16.363-32.111-42.47-58.219-74.581-74.581-20.71-10.551-42.756-14.758-66.739-16.717-23.091-1.886-51.435-1.886-85.781-1.886h-361.925c-34.345 0-62.691 0-85.782 1.886-23.983 1.958-46.029 6.165-66.736 16.717-32.113 16.363-58.222 42.47-74.584 74.581-10.551 20.71-14.756 42.756-16.716 66.739-1.886 23.091-1.886 51.435-1.885 85.781v52.962c0 23.565 19.103 42.667 42.667 42.667z" />
<glyph unicode="&#xeced;" glyph-name="trash-041" d="M341.333 832c0-23.564 19.103-42.667 42.667-42.667h256c23.565 0 42.667 19.103 42.667 42.667s-19.102 42.667-42.667 42.667h-256c-23.564 0-42.667-19.103-42.667-42.667zM213.002 746.667c0.25 0.002 0.498 0.002 0.747 0h596.504c0.247 0.002 0.495 0.002 0.747 0h85.001c23.565 0 42.667-19.103 42.667-42.667s-19.102-42.667-42.667-42.667h-45.414l-27.379-410.679c-2.15-32.235-3.93-58.91-7.117-80.623-3.319-22.605-8.58-43.26-19.55-62.511-17.071-29.969-42.825-54.059-73.86-69.103-19.938-9.66-40.9-13.542-63.676-15.347-21.875-1.737-48.606-1.737-80.909-1.737h-132.19c-32.302 0-59.034 0-80.909 1.737-22.775 1.805-43.736 5.687-63.674 15.347-31.037 15.044-56.789 39.134-73.862 69.103-10.967 19.251-16.232 39.906-19.551 62.511-3.188 21.713-4.966 48.384-7.114 80.619l-27.379 410.684h-45.417c-23.564 0-42.667 19.103-42.667 42.667s19.103 42.667 42.667 42.667h85.002zM765.060 661.333h-506.121l26.888-403.319c2.29-34.347 3.873-57.626 6.511-75.584 2.562-17.451 5.691-26.394 9.268-32.67 8.536-14.985 21.412-27.029 36.931-34.551 6.502-3.149 15.634-5.679 33.213-7.074 18.098-1.438 41.429-1.468 75.855-1.468h128.794c34.423 0 57.758 0.030 75.853 1.468 17.579 1.395 26.714 3.925 33.216 7.074 15.518 7.522 28.395 19.567 36.928 34.551 3.58 6.276 6.707 15.219 9.267 32.67 2.641 17.958 4.224 41.237 6.511 75.584l26.889 403.319z" />
<glyph unicode="&#xecee;" glyph-name="trash-031" d="M341.333 832c0-23.564 19.103-42.667 42.667-42.667h256c23.565 0 42.667 19.103 42.667 42.667s-19.102 42.667-42.667 42.667h-256c-23.564 0-42.667-19.103-42.667-42.667zM213.002 746.667c0.25 0.002 0.498 0.002 0.747 0h596.504c0.247 0.002 0.495 0.002 0.747 0h85.001c23.565 0 42.667-19.103 42.667-42.667s-19.102-42.667-42.667-42.667h-45.414l-27.379-410.679c-2.15-32.235-3.93-58.91-7.117-80.623-3.319-22.605-8.58-43.26-19.55-62.511-17.071-29.969-42.825-54.059-73.86-69.103-19.938-9.66-40.9-13.542-63.676-15.347-21.875-1.737-48.606-1.737-80.909-1.737h-132.19c-32.302 0-59.034 0-80.909 1.737-22.775 1.805-43.736 5.687-63.674 15.347-31.037 15.044-56.789 39.134-73.862 69.103-10.967 19.251-16.232 39.906-19.551 62.511-3.188 21.713-4.966 48.384-7.114 80.619l-27.379 410.684h-45.417c-23.564 0-42.667 19.103-42.667 42.667s19.103 42.667 42.667 42.667h85.002zM765.060 661.333h-506.121l26.888-403.319c2.29-34.347 3.873-57.626 6.511-75.584 2.562-17.451 5.691-26.394 9.268-32.67 8.536-14.985 21.412-27.029 36.931-34.551 6.502-3.149 15.634-5.679 33.213-7.074 18.098-1.438 41.429-1.468 75.855-1.468h128.794c34.423 0 57.758 0.030 75.853 1.468 17.579 1.395 26.714 3.925 33.216 7.074 15.518 7.522 28.395 19.567 36.928 34.551 3.58 6.276 6.707 15.219 9.267 32.67 2.641 17.958 4.224 41.237 6.511 75.584l26.889 403.319zM426.667 554.667c-23.564 0-42.667-19.103-42.667-42.667v-213.333c0-23.565 19.103-42.667 42.667-42.667s42.667 19.102 42.667 42.667v213.333c0 23.564-19.102 42.667-42.667 42.667zM597.333 554.667c-23.565 0-42.667-19.103-42.667-42.667v-213.333c0-23.565 19.102-42.667 42.667-42.667s42.667 19.102 42.667 42.667v213.333c0 23.564-19.102 42.667-42.667 42.667z" />
<glyph unicode="&#xecef;" glyph-name="trash-021" d="M476.224 917.333h71.552c22.494 0.001 41.899 0.001 57.877-1.304 16.87-1.378 33.647-4.421 49.792-12.647 24.085-12.272 43.665-31.853 55.936-55.938 8.226-16.144 11.268-32.922 12.646-49.789 1.173-14.327 1.293-31.403 1.306-50.988h170.667c23.565 0 42.667-19.103 42.667-42.667s-19.102-42.667-42.667-42.667h-42.667v-436.962c0-34.347 0-62.69-1.886-85.781-1.958-23.983-6.165-46.029-16.717-66.739-16.363-32.111-42.47-58.219-74.581-74.581-20.71-10.551-42.756-14.758-66.739-16.717-23.091-1.886-51.435-1.886-85.781-1.886h-191.258c-34.345 0-62.691 0-85.782 1.886-23.983 1.958-46.029 6.165-66.736 16.717-32.113 16.363-58.222 42.47-74.584 74.581-10.551 20.71-14.756 42.756-16.716 66.739-1.886 23.091-1.886 51.435-1.885 85.781v436.962h-42.667c-23.564 0-42.667 19.102-42.667 42.667s19.103 42.667 42.667 42.667h170.668c0.012 19.585 0.133 36.661 1.303 50.988 1.378 16.868 4.421 33.645 12.647 49.789 12.272 24.085 31.853 43.666 55.938 55.938 16.144 8.226 32.922 11.269 49.789 12.647 15.98 1.306 35.385 1.305 57.879 1.304zM256 661.333v-435.2c0-36.548 0.033-61.393 1.602-80.597 1.528-18.705 4.299-28.271 7.699-34.944 8.181-16.055 21.235-29.111 37.292-37.291 6.673-3.401 16.239-6.17 34.945-7.701 19.204-1.566 44.048-1.6 80.596-1.6h187.733c36.548 0 61.393 0.034 80.597 1.6 18.705 1.532 28.271 4.301 34.944 7.701 16.055 8.179 29.111 21.235 37.291 37.291 3.401 6.673 6.17 16.239 7.697 34.944 1.57 19.204 1.604 44.049 1.604 80.597v435.2h-512zM639.996 746.667h-255.993c0.019 19.844 0.149 33.409 1.018 44.039 0.947 11.591 2.554 15.888 3.629 17.998 4.091 8.028 10.618 14.555 18.646 18.646 2.109 1.075 6.407 2.683 17.998 3.63 12.090 0.988 27.971 1.021 52.572 1.021h68.267c24.602 0 40.482-0.033 52.574-1.021 11.588-0.947 15.885-2.554 17.997-3.63 8.030-4.090 14.554-10.618 18.645-18.646 1.075-2.11 2.684-6.407 3.631-17.998 0.866-10.63 0.998-24.195 1.015-44.039z" />
<glyph unicode="&#xecf0;" glyph-name="trash-011" d="M476.224 917.333h71.552c22.494 0.001 41.899 0.001 57.877-1.304 16.87-1.378 33.647-4.421 49.792-12.647 24.085-12.272 43.665-31.853 55.936-55.938 8.226-16.144 11.268-32.922 12.646-49.789 1.173-14.327 1.293-31.403 1.306-50.988h170.667c23.565 0 42.667-19.103 42.667-42.667s-19.102-42.667-42.667-42.667h-42.667v-436.962c0-34.347 0-62.69-1.886-85.781-1.958-23.983-6.165-46.029-16.717-66.739-16.363-32.111-42.47-58.219-74.581-74.581-20.71-10.551-42.756-14.758-66.739-16.717-23.091-1.886-51.435-1.886-85.781-1.886h-191.258c-34.345 0-62.691 0-85.782 1.886-23.983 1.958-46.029 6.165-66.736 16.717-32.113 16.363-58.222 42.47-74.584 74.581-10.551 20.71-14.756 42.756-16.716 66.739-1.886 23.091-1.886 51.435-1.885 85.781v436.962h-42.667c-23.564 0-42.667 19.102-42.667 42.667s19.103 42.667 42.667 42.667h170.668c0.012 19.585 0.133 36.661 1.303 50.988 1.378 16.868 4.421 33.645 12.647 49.789 12.272 24.085 31.853 43.666 55.938 55.938 16.144 8.226 32.922 11.269 49.789 12.647 15.98 1.306 35.385 1.305 57.879 1.304zM256 661.333v-435.2c0-36.548 0.033-61.393 1.602-80.597 1.528-18.705 4.299-28.271 7.699-34.944 8.181-16.055 21.235-29.111 37.292-37.291 6.673-3.401 16.239-6.17 34.945-7.701 19.204-1.566 44.048-1.6 80.596-1.6h187.733c36.548 0 61.393 0.034 80.597 1.6 18.705 1.532 28.271 4.301 34.944 7.701 16.055 8.179 29.111 21.235 37.291 37.291 3.401 6.673 6.17 16.239 7.697 34.944 1.57 19.204 1.604 44.049 1.604 80.597v435.2h-512zM639.996 746.667h-255.993c0.019 19.844 0.149 33.409 1.018 44.039 0.947 11.591 2.554 15.888 3.629 17.998 4.091 8.028 10.618 14.555 18.646 18.646 2.109 1.075 6.407 2.683 17.998 3.63 12.090 0.988 27.971 1.021 52.572 1.021h68.267c24.602 0 40.482-0.033 52.574-1.021 11.588-0.947 15.885-2.554 17.997-3.63 8.030-4.090 14.554-10.618 18.645-18.646 1.075-2.11 2.684-6.407 3.631-17.998 0.866-10.63 0.998-24.195 1.015-44.039zM426.667 512c23.565 0 42.667-19.102 42.667-42.667v-213.333c0-23.565-19.102-42.667-42.667-42.667s-42.667 19.102-42.667 42.667v213.333c0 23.565 19.103 42.667 42.667 42.667zM597.333 512c23.565 0 42.667-19.102 42.667-42.667v-213.333c0-23.565-19.102-42.667-42.667-42.667s-42.667 19.102-42.667 42.667v213.333c0 23.565 19.102 42.667 42.667 42.667z" />
<glyph unicode="&#xecf1;" glyph-name="translate-021" d="M256 874.667c0 23.564 19.103 42.667 42.667 42.667h42.667c23.564 0 42.667-19.103 42.667-42.667s-19.103-42.667-42.667-42.667h-42.667c-23.564 0-42.667 19.103-42.667 42.667zM511.415 789.333h-426.082c-23.564 0-42.667-19.103-42.667-42.667s19.103-42.667 42.667-42.667h346.944l-38.768-58.151-73.509-73.51-76.497 76.497c-16.663 16.662-43.677 16.662-60.34 0s-16.662-43.677 0-60.34l76.497-76.497-119.164-119.164c-16.662-16.661-16.662-43.678 0-60.339s43.677-16.661 60.34 0l119.163 119.164 76.497-76.497c16.663-16.661 43.678-16.661 60.34 0s16.661 43.678 0 60.339l-76.497 76.497 76.497 76.497c1.988 1.987 3.772 4.165 5.333 6.503l72.666 109.001h62.498c23.565 0 42.667 19.103 42.667 42.667s-19.102 42.667-42.667 42.667h-84.672c-0.414 0.006-0.832 0.006-1.246 0zM676.169 562.854c17.583 8.491 38.080 8.491 55.663 0 15.292-7.386 23.586-20.255 27.708-27.18 4.314-7.255 8.742-16.514 13.090-25.615l204.527-427.648c10.167-21.261 1.178-46.733-20.079-56.9-21.261-10.167-46.733-1.178-56.9 20.079l-70.025 146.411h-252.305l-70.025-146.411c-10.167-21.257-35.639-30.246-56.9-20.079-21.257 10.167-30.247 35.639-20.079 56.9l203.874 426.278c0.218 0.457 0.435 0.913 0.653 1.37 4.348 9.097 8.777 18.359 13.090 25.615 4.122 6.925 12.416 19.794 27.708 27.18zM618.658 277.333h170.684l-85.342 178.445-85.342-178.445z" />
<glyph unicode="&#xecf2;" glyph-name="translate-011" d="M341.332 874.667c23.564 0 42.667-19.103 42.667-42.667v-42.667h213.334c23.565 0 42.667-19.103 42.667-42.667s-19.102-42.667-42.667-42.667h-71.33c-21.858-103.549-62.003-199.13-117.907-283.166 12.174-7.492 24.271-13.956 36.055-19.247 21.495-9.66 31.091-34.91 21.431-56.405-9.655-21.495-34.91-31.091-56.403-21.436-17.61 7.915-35.177 17.545-52.343 28.51-68.567-81.911-153.855-149.436-252.516-198.464-21.102-10.487-46.71-1.882-57.197 19.221-10.487 21.099-1.881 46.707 19.22 57.195 87.009 43.238 162.126 102.426 222.714 174.037-48.594 43.994-91.108 98.534-115.028 155.149-9.171 21.706 0.991 46.737 22.697 55.908s46.737-0.991 55.908-22.697c17.283-40.906 49.159-83.417 87.675-119.56 44.978 68.878 78.386 146.607 98.265 230.955h-353.242c-23.564 0-42.667 19.103-42.667 42.667s19.102 42.667 42.667 42.667h213.333v42.667c0 23.564 19.102 42.667 42.667 42.667zM676.169 562.854c17.583 8.491 38.080 8.491 55.663 0 15.292-7.386 23.586-20.255 27.703-27.18 4.318-7.255 8.742-16.514 13.094-25.615l204.527-427.648c10.167-21.261 1.178-46.733-20.083-56.9-21.257-10.167-46.733-1.178-56.9 20.079l-70.020 146.411h-252.309l-70.020-146.411c-10.167-21.257-35.639-30.246-56.9-20.079-21.257 10.167-30.248 35.639-20.083 56.9l203.874 426.278c0.218 0.457 0.439 0.913 0.657 1.37 4.348 9.097 8.777 18.359 13.090 25.615 4.122 6.925 12.412 19.794 27.708 27.18zM618.658 277.333h170.684l-85.342 178.445-85.342-178.445z" />
<glyph unicode="&#xecf3;" glyph-name="tool-021" d="M97.831 904.837c11.427 11.427 28.331 15.418 43.662 10.307l128-42.667c17.423-5.808 29.174-22.112 29.174-40.477v-110.327l132.692-132.69c-3.085 16.567-4.693 33.623-4.693 51.017 0 153.167 124.169 277.333 277.333 277.333 50.633 0 98.214-13.607 139.153-37.391 11.452-6.653 19.162-18.248 20.873-31.381s-2.773-26.316-12.139-35.681l-112.111-112.111c-8.947-8.946-13.82-13.865-17.050-17.67-0.128-0.151-0.247-0.296-0.363-0.433 0.115-0.137 0.235-0.281 0.363-0.432 3.23-3.805 8.102-8.723 17.050-17.67l10.125-10.123c8.943-8.946 13.862-13.818 17.668-17.048 0.149-0.128 0.294-0.249 0.431-0.363 0.137 0.114 0.282 0.235 0.435 0.363 3.802 3.23 8.721 8.102 17.668 17.048l104.87 104.871c10.091 10.091 24.559 14.469 38.554 11.665 13.99-2.804 25.655-12.417 31.078-25.617 13.376-32.541 20.727-68.145 20.727-105.361 0-128.196-86.98-236.079-205.146-267.844l128.649-128.649c52.011-52.006 52.011-136.329 0-188.339-52.006-52.006-136.329-52.006-188.339 0l-204.493 204.493-204.5-204.497c-52.009-52.006-136.331-52.006-188.34 0-52.009 52.011-52.009 136.333 0 188.339l268.497 268.497-149.333 149.333h-110.327c-18.365 0-34.67 11.752-40.477 29.175l-42.667 128c-5.11 15.331-1.12 32.235 10.307 43.662l42.667 42.667zM213.335 746.667v54.581l-73.809 24.603-5.375-5.375 24.603-73.809h54.581zM478.131 481.792l-298.627-298.628c-18.684-18.684-18.684-48.977 0-67.661s48.976-18.684 67.66 0l305.364 305.365c0.811 0.806 1.634 1.638 2.475 2.487 1.741 1.749 3.558 3.58 5.444 5.431l4.143 4.143c4.804 4.804 9.98 8.862 15.407 12.224 1.609 1.045 3.243 2.018 4.907 2.91 4.169 2.231 9.225 4.689 15.377 6.558 6.153 1.873 11.721 2.65 16.427 3.119 0.917 0.090 1.83 0.162 2.743 0.209 11.524 0.956 22.997-0.218 33.583-3.123 4.437-1.216 8.939-2.278 13.504-3.183 0.017-0.004 0.034-0.004 0.055-0.009 0.828-0.166 1.655-0.324 2.487-0.474 5.44-0.998 10.957-1.766 16.555-2.295 6.033-0.572 12.16-0.866 18.364-0.866 106.039 0 192 85.961 192 192 0 1.212-0.009 2.421-0.034 3.627l-50.483-50.487c-7.616-7.616-15.031-15.032-21.824-20.8-7.458-6.333-16.926-13.141-29.286-17.158-17.139-5.568-35.601-5.568-52.74 0-12.361 4.017-21.828 10.825-29.291 17.158-6.793 5.767-14.208 13.184-21.82 20.799l-12.049 12.047c-7.612 7.614-15.031 15.028-20.796 21.822-6.336 7.46-13.141 16.927-17.161 29.289-5.568 17.139-5.568 35.6 0 52.739 4.019 12.361 10.825 21.829 17.161 29.289 5.764 6.793 13.18 14.208 20.796 21.821l67.307 67.305c-13.436 2.978-27.413 4.549-41.779 4.549-106.039 0-192-85.961-192-192 0-12.838 1.254-25.342 3.635-37.408l0.154-0.789c1.916-9.696 3.58-18.144 4.651-24.922 1.007-6.355 2.197-15.175 1.301-24.175-0.469-4.703-1.246-10.272-3.119-16.424-1.869-6.153-4.326-11.209-6.558-15.377-6.118-11.439-16.29-21.538-24.708-29.901-0.849-0.841-1.677-1.668-2.483-2.475l-6.66-6.66c-0.013-0.013-0.030-0.026-0.043-0.038s-0.026-0.026-0.038-0.038zM572.343 320.004l204.493-204.497c18.684-18.684 48.977-18.684 67.661 0s18.684 48.977 0 67.661l-182.699 182.694c-3.934 0.602-7.838 1.284-11.716 2.052-10.714 2.112-17.549 3.452-22.532 4.241-0.969 0.154-1.758 0.265-2.398 0.35-0.154-0.137-0.324-0.29-0.512-0.461-2.492-2.257-5.747-5.491-11.405-11.153-0.119-0.119-0.243-0.239-0.363-0.363l-40.529-40.525z" />
<glyph unicode="&#xecf4;" glyph-name="tool-011" d="M682.667 832c-117.82 0-213.333-95.513-213.333-213.333 0-17.522 2.103-34.496 6.050-50.705l0.201-0.817c2.372-9.734 4.45-18.274 5.841-25.175 1.314-6.549 2.889-15.561 2.249-24.917-0.875-12.736-3.499-22.097-9.37-33.434-6.242-12.045-16.862-22.592-25.643-31.305-0.883-0.879-1.745-1.737-2.586-2.577l-266.573-266.573c-18.684-18.684-18.684-48.977 0-67.661s48.976-18.684 67.66 0l266.574 266.573c0.841 0.841 1.698 1.707 2.573 2.59 8.717 8.777 19.264 19.396 31.309 25.638 11.332 5.875 20.698 8.499 33.434 9.37 9.357 0.64 18.368-0.934 24.917-2.249 6.899-1.387 15.437-3.469 25.169-5.837l0.823-0.205c16.209-3.947 33.182-6.050 50.705-6.050 117.82 0 213.333 95.514 213.333 213.333 0 8.016-0.439 15.922-1.297 23.696l-70.558-70.558c-7.616-7.615-15.027-15.031-21.82-20.797-7.462-6.333-16.93-13.142-29.291-17.158-17.139-5.568-35.601-5.568-52.74 0-12.361 4.016-21.828 10.825-29.286 17.158-6.793 5.767-14.208 13.183-21.82 20.798l-33.382 33.381c-7.616 7.613-15.031 15.028-20.8 21.821-6.332 7.46-13.141 16.928-17.156 29.289-5.568 17.138-5.568 35.6 0 52.739 4.015 12.361 10.825 21.829 17.156 29.289 5.769 6.793 13.184 14.208 20.8 21.822l70.558 70.556c-7.774 0.857-15.68 1.297-23.697 1.297zM383.999 618.667c0 164.949 133.718 298.667 298.668 298.667 43.746 0 85.406-9.432 122.957-26.415 12.762-5.772 21.879-17.442 24.393-31.223s-1.899-27.918-11.806-37.823l-121.101-121.104c-8.947-8.946-13.82-13.865-17.050-17.67-0.128-0.151-0.247-0.295-0.363-0.432 0.115-0.137 0.235-0.281 0.363-0.432 3.23-3.805 8.102-8.724 17.050-17.67l31.454-31.456c8.947-8.946 13.867-13.818 17.668-17.048 0.154-0.129 0.299-0.25 0.435-0.364 0.137 0.114 0.282 0.235 0.431 0.364 3.806 3.23 8.725 8.102 17.668 17.048l121.105 121.104c9.907 9.905 24.043 14.317 37.824 11.805s25.451-11.63 31.223-24.394c16.981-37.552 26.415-79.211 26.415-122.957 0-164.949-133.717-298.667-298.667-298.667-24.38 0-48.132 2.931-70.903 8.478-10.799 2.628-17.626 4.284-22.613 5.286-0.922 0.188-1.677 0.324-2.283 0.431-0.162-0.141-0.337-0.294-0.525-0.469-2.65-2.394-6.131-5.854-12.267-11.989l-266.573-266.573c-52.009-52.011-136.331-52.011-188.34 0-52.009 52.006-52.009 136.333 0 188.339l266.573 266.573c6.136 6.135 9.597 9.617 11.991 12.267 0.172 0.192 0.327 0.363 0.468 0.525-0.105 0.606-0.245 1.361-0.431 2.283-1.003 4.988-2.657 11.817-5.288 22.615-5.547 22.77-8.477 46.523-8.477 70.902zM398.931 523.584c-0.002-0.004 0.002 0.004 0 0-0.073-0.205-0.151-0.448-0.227-0.717-0.003-0.009 0.003 0.013 0 0s-0.015-0.055-0.018-0.064c-0.074-0.269-0.134-0.516-0.179-0.73-0.003-0.017-0.006-0.034-0.010-0.051z" />
<glyph unicode="&#xecf5;" glyph-name="toggle-03-right1" d="M42.667 448c0 164.949 133.718 298.667 298.667 298.667h341.333c164.949 0 298.667-133.718 298.667-298.667s-133.717-298.667-298.667-298.667h-341.333c-164.949 0-298.667 133.717-298.667 298.667zM341.333 661.333c-117.821 0-213.333-95.513-213.333-213.333s95.513-213.333 213.333-213.333h341.333c117.82 0 213.333 95.514 213.333 213.333s-95.514 213.333-213.333 213.333h-341.333zM682.667 512c-35.345 0-64-28.655-64-64s28.655-64 64-64c35.345 0 64 28.655 64 64s-28.655 64-64 64zM533.333 448c0 82.475 66.859 149.333 149.333 149.333s149.333-66.859 149.333-149.333c0-82.475-66.859-149.333-149.333-149.333s-149.333 66.859-149.333 149.333z" />
<glyph unicode="&#xecf6;" glyph-name="toggle-03-left1" d="M42.667 448c0 164.949 133.718 298.667 298.667 298.667h341.333c164.949 0 298.667-133.718 298.667-298.667s-133.717-298.667-298.667-298.667h-341.333c-164.949 0-298.667 133.717-298.667 298.667zM341.333 661.333c-117.821 0-213.333-95.513-213.333-213.333s95.513-213.333 213.333-213.333h341.333c117.82 0 213.333 95.514 213.333 213.333s-95.514 213.333-213.333 213.333h-341.333zM341.333 512c-35.346 0-64-28.655-64-64s28.654-64 64-64c35.346 0 64 28.655 64 64s-28.654 64-64 64zM192 448c0 82.475 66.859 149.333 149.333 149.333s149.333-66.859 149.333-149.333c0-82.475-66.859-149.333-149.333-149.333s-149.333 66.859-149.333 149.333z" />
<glyph unicode="&#xecf7;" glyph-name="toggle-02-right1" d="M622.17 583.984c0.499 0.36 0.994 0.73 1.476 1.111 28.399 21.093 63.573 33.572 101.666 33.572 94.259 0 170.667-76.41 170.667-170.667 0-94.255-76.407-170.667-170.667-170.667-38.093 0-73.267 12.48-101.666 33.57-0.482 0.384-0.977 0.755-1.476 1.114-41.033 31.168-67.524 80.482-67.524 135.983s26.492 104.815 67.524 135.984zM503.561 576c-21.781-37.654-34.249-81.37-34.249-128s12.467-90.347 34.249-128h-247.561c-70.692 0-128 57.306-128 128s57.308 128 128 128h247.561zM583.753 661.333h-327.753c-117.821 0-213.333-95.513-213.333-213.333s95.513-213.333 213.333-213.333h327.753c40.546-26.957 89.22-42.667 141.559-42.667 141.385 0 256 114.615 256 256s-114.615 256-256 256c-52.339 0-101.013-15.708-141.559-42.667z" />
<glyph unicode="&#xecf8;" glyph-name="toggle-02-left1" d="M298.667 618.667c-94.257 0-170.667-76.41-170.667-170.667 0-94.255 76.41-170.667 170.667-170.667s170.667 76.412 170.667 170.667c0 94.257-76.41 170.667-170.667 170.667zM42.667 448c0 141.385 114.615 256 256 256 52.341 0 101.013-15.708 141.559-42.667h327.774c117.82 0 213.333-95.513 213.333-213.333s-95.514-213.333-213.333-213.333h-327.774c-40.547-26.957-89.219-42.667-141.559-42.667-141.385 0-256 114.615-256 256zM520.418 320h247.582c70.694 0 128 57.306 128 128s-57.306 128-128 128h-247.582c21.781-37.654 34.249-81.37 34.249-128s-12.467-90.347-34.249-128z" />
<glyph unicode="&#xecf9;" glyph-name="toggle-01-right1" d="M42.667 448c0 141.385 114.615 256 256 256h426.667c141.385 0 256-114.615 256-256s-114.615-256-256-256h-426.667c-141.385 0-256 114.615-256 256zM725.333 277.333c94.255 0 170.667 76.412 170.667 170.667 0 94.257-76.412 170.667-170.667 170.667s-170.667-76.41-170.667-170.667c0-94.255 76.412-170.667 170.667-170.667zM534.519 618.667h-235.853c-94.257 0-170.667-76.41-170.667-170.667 0-94.255 76.41-170.667 170.667-170.667h235.853c-40.538 45.291-65.186 105.101-65.186 170.667s24.649 125.376 65.186 170.667z" />
<glyph unicode="&#xecfa;" glyph-name="toggle-01-left1" d="M42.667 448c0 141.385 114.615 256 256 256h426.667c141.385 0 256-114.615 256-256s-114.615-256-256-256h-426.667c-141.385 0-256 114.615-256 256zM489.481 277.333h235.853c94.255 0 170.667 76.412 170.667 170.667 0 94.257-76.412 170.667-170.667 170.667h-235.853c40.538-45.291 65.186-105.101 65.186-170.667s-24.649-125.376-65.186-170.667zM298.667 618.667c-94.257 0-170.667-76.41-170.667-170.667 0-94.255 76.41-170.667 170.667-170.667s170.667 76.412 170.667 170.667c0 94.257-76.41 170.667-170.667 170.667z" />
<glyph unicode="&#xecfb;" glyph-name="target-051" d="M512 832c-212.077 0-384-171.923-384-384 0-212.079 171.923-384 384-384 212.079 0 384 171.921 384 384 0 212.077-171.921 384-384 384zM42.667 448c0 259.206 210.128 469.333 469.333 469.333 259.204 0 469.333-210.128 469.333-469.333 0-259.204-210.129-469.333-469.333-469.333-259.206 0-469.333 210.129-469.333 469.333zM512 661.333c-117.821 0-213.333-95.513-213.333-213.333s95.513-213.333 213.333-213.333c117.82 0 213.333 95.514 213.333 213.333s-95.514 213.333-213.333 213.333zM213.333 448c0 164.949 133.718 298.667 298.667 298.667s298.667-133.718 298.667-298.667c0-164.949-133.717-298.667-298.667-298.667s-298.667 133.717-298.667 298.667zM512 490.667c-23.565 0-42.667-19.102-42.667-42.667s19.102-42.667 42.667-42.667c23.565 0 42.667 19.102 42.667 42.667s-19.102 42.667-42.667 42.667zM384 448c0 70.694 57.306 128 128 128s128-57.306 128-128c0-70.694-57.306-128-128-128s-128 57.306-128 128z" />
<glyph unicode="&#xecfc;" glyph-name="target-041" d="M817.498 916.783c13.538-2.197 25.195-10.768 31.33-23.034l36.305-72.613 72.614-36.306c12.267-6.133 20.838-17.79 23.031-31.328 2.197-13.538-2.244-27.307-11.942-37.004l-128-128c-8.004-8.002-18.854-12.497-30.17-12.497h-110.327l-158.17-158.17c-16.666-16.661-43.678-16.661-60.339 0.004-16.666 16.661-16.666 43.674 0 60.339l158.17 158.166v110.327c0 11.316 4.493 22.168 12.497 30.17l128 128c9.694 9.698 23.462 14.143 37.001 11.946zM725.333 661.333h67.657l73.647 73.645-32.388 16.193c-8.256 4.128-14.95 10.824-19.081 19.081l-16.192 32.386-73.643-73.645v-67.66zM512 832c-212.077 0-384-171.922-384-384s171.923-384 384-384c212.079 0 384 171.921 384 384 0 23.565 19.102 42.667 42.667 42.667s42.667-19.102 42.667-42.667c0-259.204-210.129-469.333-469.333-469.333-259.206 0-469.333 210.129-469.333 469.333 0 259.206 210.128 469.333 469.333 469.333 23.565 0 42.667-19.102 42.667-42.667s-19.102-42.667-42.667-42.667zM512 618.667c-94.257 0-170.667-76.41-170.667-170.667 0-94.255 76.41-170.667 170.667-170.667 94.255 0 170.667 76.412 170.667 170.667 0 23.565 19.102 42.667 42.667 42.667s42.667-19.102 42.667-42.667c0-141.385-114.615-256-256-256s-256 114.615-256 256c0 141.385 114.615 256 256 256 23.565 0 42.667-19.102 42.667-42.667s-19.102-42.667-42.667-42.667z" />
<glyph unicode="&#xecfd;" glyph-name="target-031" d="M512 917.333c23.565 0 42.667-19.103 42.667-42.667v-45.010c177.988-19.676 319.313-161.001 338.991-338.99h45.009c23.565 0 42.667-19.102 42.667-42.667s-19.102-42.667-42.667-42.667h-45.009c-19.678-177.988-161.003-319.313-338.991-338.991v-45.009c0-23.565-19.102-42.667-42.667-42.667s-42.667 19.102-42.667 42.667v45.009c-177.989 19.678-319.314 161.003-338.99 338.991h-45.010c-23.564 0-42.667 19.102-42.667 42.667s19.103 42.667 42.667 42.667h45.010c19.676 177.989 161.001 319.314 338.99 338.99v45.010c0 23.564 19.102 42.667 42.667 42.667zM469.333 743.642c-130.803-18.71-234.266-122.173-252.975-252.975h39.642c23.564 0 42.667-19.102 42.667-42.667s-19.103-42.667-42.667-42.667h-39.642c18.71-130.803 122.173-234.266 252.975-252.975v39.642c0 23.565 19.102 42.667 42.667 42.667s42.667-19.102 42.667-42.667v-39.642c130.803 18.709 234.266 122.172 252.975 252.975h-39.642c-23.565 0-42.667 19.102-42.667 42.667s19.102 42.667 42.667 42.667h39.642c-18.709 130.803-122.172 234.266-252.975 252.975v-39.642c0-23.564-19.102-42.667-42.667-42.667s-42.667 19.103-42.667 42.667v39.642zM512 533.333c-47.13 0-85.333-38.204-85.333-85.333s38.204-85.333 85.333-85.333c47.13 0 85.333 38.204 85.333 85.333s-38.204 85.333-85.333 85.333zM341.333 448c0 94.257 76.41 170.667 170.667 170.667 94.255 0 170.667-76.41 170.667-170.667 0-94.255-76.412-170.667-170.667-170.667-94.257 0-170.667 76.412-170.667 170.667z" />
<glyph unicode="&#xecfe;" glyph-name="target-021" d="M512 917.333c23.565 0 42.667-19.103 42.667-42.667v-45.010c177.988-19.676 319.313-161.001 338.991-338.99h45.009c23.565 0 42.667-19.102 42.667-42.667s-19.102-42.667-42.667-42.667h-45.009c-19.678-177.988-161.003-319.313-338.991-338.991v-45.009c0-23.565-19.102-42.667-42.667-42.667s-42.667 19.102-42.667 42.667v45.009c-177.989 19.678-319.314 161.003-338.99 338.991h-45.010c-23.564 0-42.667 19.102-42.667 42.667s19.103 42.667 42.667 42.667h45.010c19.676 177.989 161.001 319.314 338.99 338.99v45.010c0 23.564 19.102 42.667 42.667 42.667zM469.333 743.642c-130.803-18.71-234.266-122.173-252.975-252.975h39.642c23.564 0 42.667-19.102 42.667-42.667s-19.103-42.667-42.667-42.667h-39.642c18.71-130.803 122.173-234.266 252.975-252.975v39.642c0 23.565 19.102 42.667 42.667 42.667s42.667-19.102 42.667-42.667v-39.642c130.803 18.709 234.266 122.172 252.975 252.975h-39.642c-23.565 0-42.667 19.102-42.667 42.667s19.102 42.667 42.667 42.667h39.642c-18.709 130.803-122.172 234.266-252.975 252.975v-39.642c0-23.564-19.102-42.667-42.667-42.667s-42.667 19.103-42.667 42.667v39.642z" />
<glyph unicode="&#xecff;" glyph-name="target-011" d="M130.344 490.667h125.656c23.564 0 42.667-19.102 42.667-42.667s-19.103-42.667-42.667-42.667h-125.656c19.676-177.988 161.001-319.313 338.99-338.991v125.658c0 23.565 19.102 42.667 42.667 42.667s42.667-19.102 42.667-42.667v-125.658c177.988 19.678 319.313 161.003 338.991 338.991h-125.658c-23.565 0-42.667 19.102-42.667 42.667s19.102 42.667 42.667 42.667h125.658c-19.678 177.989-161.003 319.314-338.991 338.99v-125.656c0-23.564-19.102-42.667-42.667-42.667s-42.667 19.103-42.667 42.667v125.656c-177.989-19.676-319.314-161.001-338.99-338.99zM42.667 448c0 259.206 210.128 469.333 469.333 469.333 259.204 0 469.333-210.128 469.333-469.333 0-259.204-210.129-469.333-469.333-469.333-259.206 0-469.333 210.129-469.333 469.333z" />
<glyph unicode="&#xed00;" glyph-name="speedometer-041" d="M512 832c-212.077 0-384-171.923-384-384 0-212.079 171.923-384 384-384 212.079 0 384 171.921 384 384 0 212.077-171.921 384-384 384zM42.667 448c0 259.206 210.128 469.333 469.333 469.333 259.204 0 469.333-210.128 469.333-469.333 0-259.204-210.129-469.333-469.333-469.333-259.206 0-469.333 210.129-469.333 469.333zM512 704c-141.385 0-256-114.615-256-256 0-54.447 16.95-104.806 45.861-146.257 13.481-19.328 8.742-45.922-10.585-59.405-19.327-13.478-45.923-8.742-59.404 10.586-38.576 55.305-61.205 122.611-61.205 195.076 0 188.513 152.82 341.333 341.333 341.333 20.535 0 40.678-1.818 60.271-5.312 23.202-4.137 38.652-26.296 34.517-49.494-4.139-23.198-26.295-38.651-49.498-34.514-14.669 2.616-29.803 3.987-45.291 3.987zM734.165 670.17c16.661-16.663 16.661-43.677 0-60.34l-139.725-139.724c1.886-7.049 2.893-14.46 2.893-22.106 0-47.13-38.204-85.333-85.333-85.333s-85.333 38.204-85.333 85.333c0 47.13 38.204 85.333 85.333 85.333 7.642 0 15.053-1.007 22.101-2.889l139.725 139.725c16.661 16.662 43.678 16.662 60.339 0zM794.692 553.687c23.023 5.026 45.76-9.562 50.786-32.586 5.15-23.586 7.855-48.051 7.855-73.101 0-72.465-22.63-139.767-61.205-195.072-13.478-19.328-40.077-24.068-59.405-10.586-19.324 13.478-24.064 40.077-10.581 59.401 28.907 41.451 45.858 91.81 45.858 146.257 0 18.889-2.039 37.252-5.892 54.899-5.026 23.023 9.562 45.761 32.585 50.787z" />
<glyph unicode="&#xed01;" glyph-name="speedometer-031" d="M512 832c-212.077 0-384-171.923-384-384 0-212.079 171.923-384 384-384 212.079 0 384 171.921 384 384 0 212.077-171.921 384-384 384zM42.667 448c0 259.206 210.128 469.333 469.333 469.333 259.204 0 469.333-210.128 469.333-469.333 0-259.204-210.129-469.333-469.333-469.333-259.206 0-469.333 210.129-469.333 469.333zM512 704c-141.385 0-256-114.615-256-256 0-23.565-19.103-42.667-42.667-42.667s-42.667 19.102-42.667 42.667c0 188.513 152.82 341.333 341.333 341.333 23.565 0 42.667-19.103 42.667-42.667s-19.102-42.667-42.667-42.667zM734.165 670.17c16.661-16.663 16.661-43.677 0-60.34l-139.725-139.724c1.886-7.049 2.893-14.46 2.893-22.106 0-47.13-38.204-85.333-85.333-85.333s-85.333 38.204-85.333 85.333c0 47.13 38.204 85.333 85.333 85.333 7.642 0 15.053-1.007 22.101-2.889l139.725 139.725c16.661 16.662 43.678 16.662 60.339 0z" />
</font>
</defs>
</svg>
